[ Сегодня идет свободное скачивание без начисления Download ]


Статистика раздачи
Нет
 
   
 
Top  
 
 

Информация о фильме
Страна: США
Жанр: Комедия
Год выпуска: 2009-Режиссёр: Тодд Филлипс
В ролях: Брэдли Купер, Эд Хелмс, Зэк Галифианакис, Джастин Барта, Хэзер Грэм, Александра Баррези, Джефри Тэмбор, Кен Жонг, Рэйчел Харрис, Майк Тайсон
Описание: В разгар мальчишника трое друзей потеряли жениха. И это за 40 часов до свадьбы! Теперь им придётся восстановить ход своих мыслей, одурманенных накануне алкоголем, чтобы выяснить, что же произошло.-
-Продолжительность: 01:39:47
Перевод: Профессиональный (полное дублирование)
Файл
Качество: BDRemux 1080p
Контейнер: MKV
Видео: 16,2 Mbps / 1920x1080 / 23.976 fps / 16:9 / [email protected]
Аудио 1: Русский AC3 / 5.1 / 640 kbps / 48 kHz
Аудио 2: Английский AC3 / 5.1 / 640 kbps / 48 kHz
Cубтитры 1: Русские (Лицензия)
Cубтитры 2: Русские (Только надписи)

Media Info

Общее
Формат : Matroska
Версия формата : Version 4 / Version 2
Размер файла : 12,4 Гбайт
Продолжительность : 1 ч. 39 м.
Общий поток : 17,8 Мбит/сек
Дата кодирования : UTC 2013-06-09 05:26:08
Программа кодирования : mkvmerge v6.2.0 ('Promised Land') built on Apr 28 2013 12:22:01
Библиотека кодирования : libebml v1.3.0 + libmatroska v1.4.0
Видео
Идентификатор : 1
Формат : VC-1
Профиль формата : [email protected]
Идентификатор кодека : V_MS/VFW/FOURCC / WVC1
Идентификатор кодека/Подсказка : Microsoft
Продолжительность : 1 ч. 39 м.
Битрейт : 16,2 Мбит/сек
Ширина : 1920 пикселей
Высота : 1080 пикселей
Соотношение сторон : 16:9
Режим частоты кадров : Постоянный
Частота кадров : 23,976 кадра/сек
Субдискретизация насыщенности : 4:2:0
Битовая глубина : 8 бит
Тип развёртки : Прогрессивная
Метод сжатия : С потерями
Бит/(Пиксели*Кадры) : 0.325
Размер потока : 11,3 Гбайт (91%)
Язык : English
Default : Да
Forced : Нет
Аудио #1
Идентификатор : 2
Формат : AC-3
Формат/Информация : Audio Coding 3
Расширение режима : CM (complete main)
Параметр Endianness формата : Big
Идентификатор кодека : A_AC3
Продолжительность : 1 ч. 39 м.
Вид битрейта : Постоянный
Битрейт : 640 Кбит/сек
Каналы : 6 каналов
Расположение каналов : Front: L C R, Side: L R, LFE
Частота : 48,0 КГц
Битовая глубина : 16 бит
Метод сжатия : С потерями
Размер потока : 457 Мбайт (4%)
Заголовок : AC3 5.1 640 kbps
Язык : Russian
Default : Да
Forced : Нет
Аудио #2
Идентификатор : 3
Формат : AC-3
Формат/Информация : Audio Coding 3
Расширение режима : CM (complete main)
Параметр Endianness формата : Big
Идентификатор кодека : A_AC3
Продолжительность : 1 ч. 39 м.
Вид битрейта : Постоянный
Битрейт : 640 Кбит/сек
Каналы : 6 каналов
Расположение каналов : Front: L C R, Side: L R, LFE
Частота : 48,0 КГц
Битовая глубина : 16 бит
Метод сжатия : С потерями
Размер потока : 457 Мбайт (4%)
Заголовок : AC3 5.1 640 kbps
Язык : English
Default : Нет
Forced : Нет
Текст #1
Идентификатор : 4
Формат : UTF-8
Идентификатор кодека : S_TEXT/UTF8
Идентификатор кодека/Информация : UTF-8 Plain Text
Заголовок : License
Язык : Russian
Default : Нет
Forced : Нет
Текст #2
Идентификатор : 5
Формат : UTF-8
Идентификатор кодека : S_TEXT/UTF8
Идентификатор кодека/Информация : UTF-8 Plain Text
Заголовок : Tol'ko nadpisi
Язык : Russian
Default : Да
Forced : Нет

Скриншоты


[Цитировать]



Показать сообщения:    

Текущее время: 07-Дек 00:56

Часовой пояс: UTC + 3


Вы не можете начинать темы
Вы не можете отвечать на сообщения
Вы не можете редактировать свои сообщения
Вы не можете удалять свои сообщения
Вы не можете голосовать в опросах
Вы не можете прикреплять файлы к сообщениям
Вы не можете скачивать файлы

!ВНИМАНИЕ!
Сайт не предоставляет электронные версии произведений, а занимается лишь коллекционированием и каталогизацией ссылок, присылаемых и публикуемых на форуме нашими читателями. Если вы являетесь правообладателем какого-либо представленного материала и не желаете, чтобы ссылка на него находилась в нашем каталоге, свяжитесь с нами, и мы незамедлительно удалим ее. Файлы для обмена на трекере предоставлены пользователями сайта, и администрация не несет ответственности за их содержание. Просьба не заливать файлы, защищенные авторскими правами, а также файлы нелегального содержания!