[ Сегодня идет свободное скачивание без начисления Download ]


Статистика раздачи
Нет
 
   
 
Top  
 
 

Информация о фильме
Название: Изгоняющий заново [Рецидив]
Оригинальное название: Repossessed
Год выхода: 1990
Жанр: Пародия, Комедия, Черный юмор, Ужасы, Стеб, Фарс, Триллер
Режиссер: Боб Логан / Bob Logan
В ролях: Линда Блэр, Нед Битти, Лесли Нильсен, Энтони Старк, Том Шарп, Лана Шваб, Бендж Талл, Дав Деллос, Jacquelyn Masche, Мелисса Мур
О фильме:
Выступая перед студентами, святой отец Джидайдай Мэйи рассказывает им историю, случившуюся в 1973 году, когда ему удалось изгнать дьявола, вселившегося в тело 13-летней девочки Нэнси. С тех пор прошло 17 лет.
Неожиданно к Мэйи приходит молодой священник Люк с просьбой еще раз навестить Нэнси, которая вновь одержима дьяволом, будучи уже сама матерью двоих детей.

Страна: США
Студия: Carolco Pictures Inc.
Продолжительность: 1:20:42
Перевод: Авторский (Одноголосый, закадровый) А.Михалев
Оригинал (Английский)
Файл
Кодек: H264
Качество: HDrip-AVC
Видео: 1024x576, 3121kbps, 23.976fps, Pixel frame 0,221
Звук:
Audio #1: (mp3, 2ch, 320Kbps) Михалев
Audio #2: (mp3, 2ch, 128Kbps) Оригинал
Субтитры: Русские фиксированные

MI

F:КомедииИзгоняющий заново [Рецидив] (1990) DVDRip Михалев, Английский.avi
General
Complete name : F:КомедииИзгоняющий заново [Рецидив] (1990) HDrip-AVC Михалев, Английский.avi
Format : AVI
Format/Info : Audio Video Interleave
Format profile : OpenDML
File size : 2.02 GiB
Duration : 1h 20mn
Overall bit rate mode : Variable
Overall bit rate : 3 588 Kbps
Writing application : Lavf51.12.1
Video #0
ID : 0
Format : AVC
Format/Info : Advanced Video Codec
Format profile : Baseline@L3.1
Format settings, CABAC : No
Format settings, ReFrames : 1 frame
Format settings, GOP : M=1, N=12
Codec ID : H264
Duration : 1h 20mn
Bit rate mode : Variable
Bit rate : 3 121 Kbps
Maximum bit rate : 4 680 Kbps
Width : 1 024 pixels
Height : 576 pixels
Display aspect ratio : 16:9
Frame rate : 23.976 fps
Original frame rate : 24.000 fps
Color space : YUV
Chroma subsampling : 4:2:0
Bit depth : 8 bits
Scan type : Progressive
Bits/(Pixel*Frame) : 0.221
Stream size : 1.76 GiB (87%)
Audio #1
ID : 1
Format : MPEG Audio
Format version : Version 1
Format profile : Layer 3
Mode : Joint stereo
Mode extension : MS Stereo
Codec ID : 55
Codec ID/Hint : MP3
Duration : 1h 20mn
Bit rate mode : Constant
Bit rate : 320 Kbps
Channel(s) : 2 channels
Sampling rate : 44.1 KHz
Compression mode : Lossy
Stream size : 185 MiB (9%)
Alignment : Aligned on interleaves
Interleave, duration : 26 ms (0.63 video frame)
Interleave, preload duration : 26 ms
Writing library : LAME3.97
Audio #2
ID : 2
Format : MPEG Audio
Format version : Version 1
Format profile : Layer 3
Mode : Joint stereo
Mode extension : MS Stereo
Codec ID : 55
Codec ID/Hint : MP3
Duration : 1h 20mn
Bit rate mode : Constant
Bit rate : 128 Kbps
Channel(s) : 2 channels
Sampling rate : 44.1 KHz
Compression mode : Lossy
Stream size : 73.9 MiB (4%)
Alignment : Aligned on interleaves
Interleave, duration : 26 ms (0.63 video frame)
Interleave, preload duration : 26 ms
Writing library : LAME3.97

Скриншоты

[Цитировать]



Показать сообщения:    

Текущее время: 11-Дек 13:01

Часовой пояс: UTC + 3


Вы не можете начинать темы
Вы не можете отвечать на сообщения
Вы не можете редактировать свои сообщения
Вы не можете удалять свои сообщения
Вы не можете голосовать в опросах
Вы не можете прикреплять файлы к сообщениям
Вы не можете скачивать файлы

!ВНИМАНИЕ!
Сайт не предоставляет электронные версии произведений, а занимается лишь коллекционированием и каталогизацией ссылок, присылаемых и публикуемых на форуме нашими читателями. Если вы являетесь правообладателем какого-либо представленного материала и не желаете, чтобы ссылка на него находилась в нашем каталоге, свяжитесь с нами, и мы незамедлительно удалим ее. Файлы для обмена на трекере предоставлены пользователями сайта, и администрация не несет ответственности за их содержание. Просьба не заливать файлы, защищенные авторскими правами, а также файлы нелегального содержания!