[ Сегодня идет свободное скачивание без начисления Download ]


Статистика раздачи
Нет
 
   
 
Top  
 
 
«Mortal enemies make dangerous friends.»Информация о фильме
Название: От колыбели до могилы
Оригинальное название: Cradle 2 the Grave
Год выхода: 2003
Жанр: боевик, триллер, драма, криминал-Режиссер: Анджей Бартковяк
В ролях: Джет Ли, DMX, Энтони Андерсон, Келли Ху, Том Арнольд, Марк Дакаскос, Гэбриэл Юнион, Майкл Джейс, Драг-Он, Пейдж Херд-О фильме:
Профессиональный грабитель и секретный агент объединяют свои усилия в борьбе против банды свирепых гангстеров под руководством жестокого мафиози... В центре сюжета - бесценные сокровища - черные алмазы из Тайваня. Сначала их похищает банда чернокожего вора Тони Фейта. Но драгоценности приносят ему лишь неприятности: хозяин камешков, торговец оружием Линг, похищает дочь Фейта и требует вернуть бриллианты. Только возвращать уже нечего: камни снова украдены, на этот раз бандой местного мафиози Джамба Чемберса. Чтобы вернуть дочь и уцелеть самому, Фейт вынужден объединиться с агентом тайваньской разведки Су, который тоже идет по следу бриллиантов. Дело в том, что черные алмазы - совсем не ювелирные драгоценности...- -

Знаете ли вы, что...

• Съемки картины начались 11-го марта 2002 года, а закончились в начале лета того же года. Фильм снимался в Лос-Анджелесе и Торонто.
• Первоначально продюсер картины Джоэл Силвер на главную роль в фильме планировал Вина Дизеля, но тот был занят съемками «Трех Иксов», поэтому от его кандидатуры пришлось отказаться.
• Рабочими названиями картины были «Untitled DMX Project» и «Untitled M Remake Project». Название «Cradle to the Grave» было заменено на более «крутое» «Cradle 2 the Grave».
• В Германи фильм был назван «Born 2 Die» (Рождённый чтобы умереть).
Выпущено: США | Silver Pictures
Продолжительность: 01:41:12
Перевод: Профессиональный (Многоголосый закадровый) - 3 вида
Файл
Качество: BDRip 1080p / Исходник - CRADLE2GRAVE_BLUEBIRD /
Видео: AVC, 1920x796 (2.40:1) at 23.976 fps, AVC at 14 298 kbps avg, 0.381 bit/pixel, crf
Аудио #1: Русский (Профессиональный (многоголосый)), DTS, 6ch (L, C, R, Ls, Rs +LFE), 768 кбит/с |DVD R5|
Аудио #2: Русский (Профессиональный (многоголосый)), AC3, 6ch (L, C, R, Ls, Rs +LFE), 224 кбит/с
Аудио #3: Украинский (Профессиональный (многоголосый)), AC3, 2ch (L, R), 224 кбит/с |ICTV|
Аудио #4: Английский, DTS, 6ch (L, C, R, Ls, Rs +LFE), 768 кбит/с |Original|
Субтитры: Русские, Английские - SRT
Дополнительно: Сохранены оригинальные чаптеры (главы) как на Blu-ray.
Автор рипа:

x264 log

raw [info]: 1920x796p 1:1 @ 24000/1001 fps (cfr)
x264 [info]: using SAR=1/1
x264 [info]: using cpu capabilities: MMX2 SSE2Fast SSSE3 FastShuffle SSE4.2 AVX
x264 [info]: profile High, level 4.1
x264 [info]: frame I:1177 Avg QP:17.57 size:146005
x264 [info]: frame P:42908 Avg QP:18.78 size:102324
x264 [info]: frame B:101517 Avg QP:20.41 size: 61971
x264 [info]: consecutive B-frames: 4.0% 8.5% 7.9% 72.7% 3.9% 2.1% 0.6% 0.2% 0.1%
x264 [info]: mb I I16..4: 4.5% 75.8% 19.7%
x264 [info]: mb P I16..4: 1.9% 44.2% 5.7% P16..4: 19.2% 21.0% 6.8% 0.9% 0.0% skip: 0.3%
x264 [info]: mb B I16..4: 0.8% 18.8% 2.0% B16..8: 30.2% 17.1% 3.5% direct:16.8% skip:10.9% L0:49.6% L1:32.5% BI:18.0%
x264 [info]: 8x8 transform intra:86.0% inter:69.4%
x264 [info]: coded y,uvDC,uvAC intra: 97.2% 92.7% 71.8% inter: 52.4% 62.2% 18.0%
x264 [info]: i16 v,h,dc,p: 29% 24% 19% 28%
x264 [info]: i8 v,h,dc,ddl,ddr,vr,hd,vl,hu: 12% 11% 29% 7% 8% 8% 7% 8% 10%
x264 [info]: i4 v,h,dc,ddl,ddr,vr,hd,vl,hu: 19% 17% 13% 6% 10% 10% 10% 7% 10%
x264 [info]: i8c dc,h,v,p: 43% 25% 18% 14%
x264 [info]: Weighted P-Frames: Y:2.0% UV:1.0%
x264 [info]: ref P L0: 62.3% 9.9% 19.4% 7.7% 0.7% 0.0%
x264 [info]: ref B L0: 93.6% 5.4% 1.0%
x264 [info]: ref B L1: 97.2% 2.8%
x264 [info]: kb/s:14297.73
encoded 145602 frames, 1.16 fps, 14297.73 kb/s

MI

General
Unique ID : 225073029372873573744111965918003329872 (0xA9537D1B121B272D8A169BB8F149FB50)
Complete name : C:torrentsCradle.2.the.Grave.2003.BDRip.1080p.Electr0man.mkv
Format : Matroska
Format version : Version 2
File size : 11.5 GiB
Duration : 1h 41mn
Overall bit rate : 16.3 Mbps
Movie name : BDRip 1080p by Electr0man
Encoded date : UTC 2013-08-26 10:32:37
Writing application : mkvmerge v5.5.0 ('Healer') built on Apr 6 2012 21:43:24
Writing library : libebml v1.2.3 + libmatroska v1.3.0
Video
ID : 1
Format : AVC
Format/Info : Advanced Video Codec
Format profile : High@L4.1
Format settings, CABAC : Yes
Format settings, ReFrames : 4 frames
Codec ID : V_MPEG4/ISO/AVC
Duration : 1h 41mn
Bit rate : 14.0 Mbps
Width : 1 920 pixels
Height : 796 pixels
Display aspect ratio : 2.40:1
Frame rate mode : Constant
Frame rate : 23.976 fps
Color space : YUV
Chroma subsampling : 4:2:0
Bit depth : 8 bits
Scan type : Progressive
Bits/(Pixel*Frame) : 0.381
Stream size : 9.88 GiB (86%)
Title : От колыбели до могилы / Cradle 2 the Grave (2003)
Writing library : x264 core 125 r2208 d9d2288
Encoding settings : cabac=1 / ref=4 / deblock=1:-3:-3 / analyse=0x3:0x133 / me=tesa / subme=11 / psy=1 / psy_rd=1.40:0.00 / mixed_ref=1 / me_range=32 / chroma_me=1 / trellis=2 / 8x8dct=1 / cqm=0 / deadzone=21,11 / fast_pskip=0 / chroma_qp_offset=-2 / threads=6 / lookahead_threads=1 / sliced_threads=0 / nr=0 / decimate=1 / interlaced=0 / bluray_compat=0 / constrained_intra=0 / bframes=8 / b_pyramid=2 / b_adapt=2 / b_bias=0 / direct=1 / weightb=1 / open_gop=0 / weightp=2 / keyint=240 / keyint_min=23 / scenecut=40 / intra_refresh=0 / rc_lookahead=60 / rc=crf / mbtree=0 / crf=18.0 / qcomp=0.60 / qpmin=0 / qpmax=69 / qpstep=4 / vbv_maxrate=62500 / vbv_bufsize=78125 / crf_max=0.0 / nal_hrd=none / ip_ratio=1.30 / pb_ratio=1.20 / aq=2:0.70
Language : English
Default : Yes
Forced : No
Audio #1
ID : 2
Format : DTS
Format/Info : Digital Theater Systems
Mode : 16
Format settings, Endianness : Big
Codec ID : A_DTS
Duration : 1h 41mn
Bit rate mode : Constant
Bit rate : 768 Kbps
Channel(s) : 6 channels
Channel positions : Front: L C R, Side: L R, LFE
Sampling rate : 48.0 KHz
Bit depth : 24 bits
Compression mode : Lossy
Stream size : 556 MiB (5%)
Title : MVO |DVD R5|
Language : Russian
Default : Yes
Forced : No
Audio #2
ID : 3
Format : AC-3
Format/Info : Audio Coding 3
Mode extension : CM (complete main)
Format settings, Endianness : Big
Codec ID : A_AC3
Duration : 1h 41mn
Bit rate mode : Constant
Bit rate : 224 Kbps
Channel(s) : 6 channels
Channel positions : Front: L C R, Side: L R, LFE
Sampling rate : 48.0 KHz
Bit depth : 16 bits
Compression mode : Lossy
Stream size : 162 MiB (1%)
Title : MVO
Language : Russian
Default : No
Forced : No
Audio #3
ID : 4
Format : AC-3
Format/Info : Audio Coding 3
Format profile : Dolby Digital
Mode extension : CM (complete main)
Format settings, Endianness : Big
Codec ID : A_AC3
Duration : 1h 41mn
Bit rate mode : Constant
Bit rate : 224 Kbps
Channel(s) : 2 channels
Channel positions : Front: L R
Sampling rate : 48.0 KHz
Bit depth : 16 bits
Compression mode : Lossy
Stream size : 162 MiB (1%)
Title : MVO |ICTV|
Language : Ukrainian
Default : No
Forced : No
Audio #4
ID : 5
Format : DTS
Format/Info : Digital Theater Systems
Mode : 16
Format settings, Endianness : Big
Codec ID : A_DTS
Duration : 1h 41mn
Bit rate mode : Constant
Bit rate : 768 Kbps
Channel(s) : 6 channels
Channel positions : Front: L C R, Side: L R, LFE
Sampling rate : 48.0 KHz
Bit depth : 24 bits
Compression mode : Lossy
Stream size : 556 MiB (5%)
Title : Original
Language : English
Default : No
Forced : No
Text #1
ID : 6
Format : UTF-8
Codec ID : S_TEXT/UTF8
Codec ID/Info : UTF-8 Plain Text
Language : Russian
Default : No
Forced : No
Text #2
ID : 7
Format : UTF-8
Codec ID : S_TEXT/UTF8
Codec ID/Info : UTF-8 Plain Text
Language : English
Default : No
Forced : No
Menu
00:00:00.000 : en:00:00:00.000
00:04:01.074 : en:00:04:01.074
00:06:40.650 : en:00:06:40.650
00:09:34.157 : en:00:09:34.157
00:13:09.330 : en:00:13:09.330
00:18:28.107 : en:00:18:28.107
00:23:02.881 : en:00:23:02.881
00:27:14.800 : en:00:27:14.800
00:31:29.930 : en:00:31:29.930
00:35:45.643 : en:00:35:45.643
00:39:03.424 : en:00:39:03.424
00:43:35.530 : en:00:43:35.530
00:46:15.940 : en:00:46:15.940
00:51:40.139 : en:00:51:40.139
00:54:34.313 : en:00:54:34.313
00:56:20.294 : en:00:56:20.294
00:59:40.285 : en:00:59:40.285
01:03:28.763 : en:01:03:28.763
01:09:40.259 : en:01:09:40.259
01:12:07.448 : en:01:12:07.448
01:15:41.370 : en:01:15:41.370
01:18:40.633 : en:01:18:40.633
01:23:23.749 : en:01:23:23.749
01:27:21.361 : en:01:27:21.361
01:30:39.267 : en:01:30:39.267
01:34:31.875 : en:01:34:31.875
01:36:29.784 : en:01:36:29.784
01:37:32.346 : en:01:37:32.346

Скриншоты



[Цитировать]



Показать сообщения:    

Текущее время: 08-Дек 11:01

Часовой пояс: UTC + 3


Вы не можете начинать темы
Вы не можете отвечать на сообщения
Вы не можете редактировать свои сообщения
Вы не можете удалять свои сообщения
Вы не можете голосовать в опросах
Вы не можете прикреплять файлы к сообщениям
Вы не можете скачивать файлы

!ВНИМАНИЕ!
Сайт не предоставляет электронные версии произведений, а занимается лишь коллекционированием и каталогизацией ссылок, присылаемых и публикуемых на форуме нашими читателями. Если вы являетесь правообладателем какого-либо представленного материала и не желаете, чтобы ссылка на него находилась в нашем каталоге, свяжитесь с нами, и мы незамедлительно удалим ее. Файлы для обмена на трекере предоставлены пользователями сайта, и администрация не несет ответственности за их содержание. Просьба не заливать файлы, защищенные авторскими правами, а также файлы нелегального содержания!