[ Сегодня идет свободное скачивание без начисления Download ]


Статистика раздачи
Нет
 
   
 
Top  
 
 
Кипелов (Кипелов & Маврин) / Дискография
Жанр: Heavy Metal
Страна исполнителя: Россия
Производитель CD: Россия (кроме "Смутное время" - Австрия)
Год издания: 1997; 2002-2009
Аудио кодек: FLAC (*.flac)
Тип рипа: image+.cue
Битрейт аудио: lossless
Продолжительность: 12 CD
Полиграфия: ко всем дискам

1997 - Кипелов & Маврин - Смутное Время

Год издания: 1997
Издатель (лейбл): Moroz Records
Номер по каталогу: MR 97210 CD
Риппер: Vilenia
Треклист:
01. Путь Наверх (7:13)
02. Выпьем Ещё (5:50)
03. Вот и Все Дела! (6:06)
04. Я Свободен! (7:26)
05. Смутное Время (6:44)
06. пустой трек (0:10)
07. Свет Дневной Иссяк... (6:04)
08. Castlevania (6:06)
09. Ночь в Июле (7:16)
10. Будем Жить, Мать Россия! (7:01)
11. Кода (0:47)

Лог создания рипа

Exact Audio Copy V0.99 prebeta 3 from 28. July 2007
EAC extraction logfile from 30. April 2009, 22:11
Кипелов & Маврин / Смутное время
Used drive : PLEXTOR DVDR PX-755A Adapter: 0 ID: 0
Read mode : SecureUtilize accurate stream : YesDefeat audio cache : YesMake use of C2 pointers : No
Read offset correction : 30Overread into Lead-In and Lead-Out : NoFill up missing offset samples with silence : YesDelete leading and trailing silent blocks : NoNull samples used in CRC calculations : YesUsed interface : Installed external ASPI interface
Used output format : Internal WAV RoutinesSample format : 44.100 Hz; 16 Bit; Stereo
TOC of the extracted CD
Track | Start | Length | Start sector | End sector --------------------------------------------------------- 1 | 0:00.00 | 7:13.17 | 0 | 32491 2 | 7:13.17 | 5:49.47 | 32492 | 58713 3 | 13:02.64 | 6:05.50 | 58714 | 86138 4 | 19:08.39 | 7:26.35 | 86139 | 119623 5 | 26:34.74 | 6:44.18 | 119624 | 149941 6 | 33:19.17 | 0:10.37 | 149942 | 150728 7 | 33:29.54 | 6:04.22 | 150729 | 178050 8 | 39:34.01 | 6:06.33 | 178051 | 205533 9 | 45:40.34 | 7:16.29 | 205534 | 238262 10 | 52:56.63 | 7:00.49 | 238263 | 269811 11 | 59:57.37 | 0:47.21 | 269812 | 273357
Range status and errors
Selected range
Filename C:\Кипелов & Маврин - Смутное время.wav
Peak level 96.6 % Range quality 100.0 % Copy CRC 7E3651A3 Copy OK
No errors occurred
End of status report

2003 - Путь Наверх (live)

Год издания: 2003
Издатель (лейбл): Moroz Records
Номер по каталогу: PX 016-03
Риппер: VDUB88
Треклист:
CD 1
01. Путь наверх (8:18)
02. Я не сошёл с ума (6:18)
03. Грязь (4:33)
04. Бесы (3:43)
05. Дьявольский зной (5:20)
06. Castlevania (6:15)
07. Я свободен (7:10)
08. Путь в никуда (5:29)
09. Следуй за мной (5:03)
CD 2
01. Потерянный рай (6:01)
02. Беспечный Ангел (3:37)
03. Герой асфальта (5:16)
04. Мёртвая зона (6:43)
05. Закат (3:34)
06. Возьми моё сердце (3:54)
07. Тореро (6:50)
08. Машина смерти (5:10)
09. Воля и разум (7:40)
10. Встань, страх преодолей (bonus track) (4:46)
11. Мечты (bonus track) (4:18)
12. Здесь куют металл (bonus track) (4:23)

Лог создания рипа

CD 1

EAC extraction logfile from 15. January 2007, 0:12 for CDКипелов / Путь Наверх #1
Used drive : PIONEER DVD-RW DVR-111L Adapter: 1 ID: 0Read mode : Secure with NO C2, accurate stream, disable cacheRead offset correction : 48Overread into Lead-In and Lead-Out : No
Used output format : Internal WAV Routines 44.100 Hz; 16 Bit; Stereo
Other options : Fill up missing offset samples with silence : Yes Delete leading and trailing silent blocks : No Installed external ASPI interface
Range status and errorsSelected range Filename E:\Путь Наверх\CD1\CDImage.wav
Peak level 100.0 % Range quality 100.0 % CRC 7506D9F9 Copy OK
No errors occured
End of status report

CD 2

EAC extraction logfile from 30. January 2008, 10:57 for CDUnknown Artist / Unknown Title
Used drive : PIONEER DVD-RW DVR-111D Adapter: 0 ID: 0Read mode : Secure with NO C2, accurate stream, disable cacheRead offset correction : 48Overread into Lead-In and Lead-Out : No
Used output format : Internal WAV Routines 44.100 Hz; 16 Bit; Stereo
Other options : Fill up missing offset samples with silence : Yes Delete leading and trailing silent blocks : No Installed external ASPI interface
Range status and errorsSelected range Filename C:\Documents and Settings\DVS\My Documents\Unknown Artist - Unknown Title.wav
Peak level 100.0 % Range quality 99.9 % CRC 1421883E Copy OK
No errors occured
End of status report

2004 - Вавилон (single)

Год издания: 2004
Издатель (лейбл): Moroz Records
Номер по каталогу: MR 04633 CD
Риппер: Drgar
Треклист:
01. Вавилон (5:46)
02. Я Свободен (7:13)
03. Смутное Время (4:50)
Bonus: видеоклип на песню "Я свободен"

Лог создания рипа

Exact Audio Copy V1.0 beta 1 from 15. November 2010
EAC extraction logfile from 24. January 2011, 13:16
Кипелов / Вавилон
Used drive : ASUS DRW-24B1LT Adapter: 11 ID: 12
Read mode : SecureUtilize accurate stream : YesDefeat audio cache : YesMake use of C2 pointers : No
Read offset correction : 6Overread into Lead-In and Lead-Out : NoFill up missing offset samples with silence : YesDelete leading and trailing silent blocks : NoNull samples used in CRC calculations : YesUsed interface : Native Win32 interface for Win NT & 2000
Used output format : User Defined EncoderSelected bitrate : 1024 kBit/sQuality : HighAdd ID3 tag : NoCommand line compressor : C:\Program Files (x86)\Exact Audio Copy\Flac\flac.exeAdditional command line options : -8 -V %s
TOC of the extracted CD
Track | Start | Length | Start sector | End sector --------------------------------------------------------- 1 | 0:00.00 | 5:45.40 | 0 | 25914 2 | 5:45.40 | 7:13.07 | 25915 | 58396 3 | 12:58.47 | 4:50.14 | 58397 | 80160 4 | 20:20.61 | 9:04.65 | 91561 | 132425
Range status and errors
Selected range
Filename C:\Users\Drgar\Desktop\Кипелов\2004 - Вавилон (single)\Кипелов - Вавилон.wav
Peak level 100.0 % Extraction speed 2.3 X Range quality 100.0 % Test CRC 99016062 Copy CRC 99016062 Copy OK
No errors occurred
AccurateRip summary
Track 1 accurately ripped (confidence 2) [D4935DD4]Track 2 accurately ripped (confidence 2) [111D1827]Track 3 accurately ripped (confidence 2) [2E1CBF75]
All tracks accurately ripped
End of status report

2004 - Путь Наверх (live)

Год издания: 2004
Издатель (лейбл): Moroz Records
Номер по каталогу: dMR 75304 CD / dMR 75404 CD
Риппер: Drgar
Треклист:
CD 1
01. Путь наверх (8:18)
02. Я не сошёл с ума (6:18)
03. Грязь (4:33)
04. Бесы (3:43)
05. Дьявольский зной (5:20)
06. Castlevania (6:15)
07. Я свободен (7:10)
08. Путь в никуда (5:29)
09. Следуй за мной (5:05)
10. Смутное время (bonus track) (4:51)
CD 2
01. Потерянный рай (5:59)
02. Беспечный ангел (3:35)
03. Герой асфальта (5:14)
04. Мёртвая зона (6:41)
05. Закат (3:32)
06. Возьми моё сердце (3:52)
07. Тореро (6:48)
08. Машина Смерти (5:08)
09. Воля и разум (7:42)
10. Вавилон (bonus track) (5:42)

Лог создания рипа

CD 1

Exact Audio Copy V1.0 beta 1 from 15. November 2010
EAC extraction logfile from 24. January 2011, 13:35
Кипелов / Путь Наверх (CD 1)
Used drive : ASUS DRW-24B1LT Adapter: 11 ID: 12
Read mode : SecureUtilize accurate stream : YesDefeat audio cache : YesMake use of C2 pointers : No
Read offset correction : 6Overread into Lead-In and Lead-Out : NoFill up missing offset samples with silence : YesDelete leading and trailing silent blocks : NoNull samples used in CRC calculations : YesUsed interface : Native Win32 interface for Win NT & 2000
Used output format : User Defined EncoderSelected bitrate : 1024 kBit/sQuality : HighAdd ID3 tag : NoCommand line compressor : C:\Program Files (x86)\Exact Audio Copy\Flac\flac.exeAdditional command line options : -8 -V %s
TOC of the extracted CD
Track | Start | Length | Start sector | End sector --------------------------------------------------------- 1 | 0:00.00 | 8:17.45 | 0 | 37319 2 | 8:17.45 | 6:18.37 | 37320 | 65706 3 | 14:36.07 | 4:33.00 | 65707 | 86181 4 | 19:09.07 | 3:42.45 | 86182 | 102876 5 | 22:51.52 | 5:20.19 | 102877 | 126895 6 | 28:11.71 | 6:14.66 | 126896 | 155011 7 | 34:26.62 | 7:09.65 | 155012 | 187251 8 | 41:36.52 | 5:29.30 | 187252 | 211956 9 | 47:06.07 | 5:04.40 | 211957 | 234796 10 | 52:10.47 | 4:51.14 | 234797 | 256635
Range status and errors
Selected range
Filename C:\Users\Drgar\Desktop\Кипелов\2004 - Путь Наверх (live)\CD 1\Кипелов - Путь Наверх (CD 1).wav
Peak level 100.0 % Extraction speed 0.5 X Range quality 100.0 % Test CRC D6474026 Copy CRC D6474026 Copy OK
No errors occurred
AccurateRip summary
Track 1 not present in databaseTrack 2 not present in databaseTrack 3 not present in databaseTrack 4 not present in databaseTrack 5 not present in databaseTrack 6 not present in databaseTrack 7 not present in databaseTrack 8 not present in databaseTrack 9 not present in databaseTrack 10 not present in database
None of the tracks are present in the AccurateRip database
End of status report

CD 2

Exact Audio Copy V1.0 beta 1 from 15. November 2010
EAC extraction logfile from 24. January 2011, 14:02
Кипелов / Путь Наверх (CD 2)
Used drive : ASUS DRW-24B1LT Adapter: 11 ID: 12
Read mode : SecureUtilize accurate stream : YesDefeat audio cache : YesMake use of C2 pointers : No
Read offset correction : 6Overread into Lead-In and Lead-Out : NoFill up missing offset samples with silence : YesDelete leading and trailing silent blocks : NoNull samples used in CRC calculations : YesUsed interface : Native Win32 interface for Win NT & 2000
Used output format : User Defined EncoderSelected bitrate : 1024 kBit/sQuality : HighAdd ID3 tag : NoCommand line compressor : C:\Program Files (x86)\Exact Audio Copy\Flac\flac.exeAdditional command line options : -8 -V %s
TOC of the extracted CD
Track | Start | Length | Start sector | End sector --------------------------------------------------------- 1 | 0:00.00 | 5:59.21 | 0 | 26945 2 | 5:59.21 | 3:34.72 | 26946 | 43067 3 | 9:34.18 | 5:14.27 | 43068 | 66644 4 | 14:48.45 | 6:41.24 | 66645 | 96743 5 | 21:29.69 | 3:31.54 | 96744 | 112622 6 | 25:01.48 | 3:51.67 | 112623 | 130014 7 | 28:53.40 | 6:47.42 | 130015 | 160581 8 | 35:41.07 | 5:08.24 | 160582 | 183705 9 | 40:49.31 | 7:42.31 | 183706 | 218386 10 | 48:31.62 | 5:41.55 | 218387 | 244016
Range status and errors
Selected range
Filename C:\Users\Drgar\Desktop\Кипелов\2004 - Путь Наверх (live)\CD 2\Кипелов - Путь Наверх (CD 2).wav
Peak level 100.0 % Extraction speed 0.3 X Range quality 99.9 % Test CRC 23A9B419 Copy CRC 23A9B419 Copy OK
No errors occurred
AccurateRip summary
Track 1 accurately ripped (confidence 2) [E494AC18]Track 2 accurately ripped (confidence 2) [A1C0E24F]Track 3 accurately ripped (confidence 2) [505E716B]Track 4 accurately ripped (confidence 2) [AE21C49C]Track 5 accurately ripped (confidence 2) [3B9C9161]Track 6 accurately ripped (confidence 2) [87DEF968]Track 7 accurately ripped (confidence 2) [B53B8920]Track 8 accurately ripped (confidence 2) [ECECAB0F]Track 9 accurately ripped (confidence 2) [2D995D5D]Track 10 accurately ripped (confidence 2) [FBA549CC]
All tracks accurately ripped
End of status report

2005 - Реки Времён

Год издания: 2005
Издатель (лейбл): CD-Maximum
Номер по каталогу: CDM 0805-2359/d
Риппер: nikchorats
Треклист:
01. На распутье (5:01)
02. Дыханье Тьмы (5:07)
03. Пророк (5:27)
04. Не сейчас (4:55)
05. Матричный Бог (6:37)
06. Я здесь (5:39)
07. Наважденье (5:38)
08. Реки Времён (4:57)
09. Призрачный Взвод (4:57)
Bonus: видеоклип на песню "Я здесь"

Тех.данные и скриншоты видеоклипа #1

Видео
Идентификатор : 224 (0xE0)
Формат : MPEG Video
Версия формата : Version 2
Профайл формата : [email protected]
Параметры BVOP формата : Да
Параметры матрицы формата : По умолчанию
Format_Settings_GOP : M=3, N=12
Продолжительность : 5 м. 37 с.
Вид битрейта : Переменный
Битрейт : 4094 Кбит/сек
Номинальный битрейт : 6000 Кбит/сек
Ширина : 720 пикс.
Высота : 528 пикс.
Соотношение кадра : 4:3
Частота кадров : 25,000 кадр/сек
ColorSpace : YUV
ChromaSubsampling : 4:2:0
BitDepth/String : 8 бит
Тип развёртки : Чересстрочная
Порядок развёртки : Нижнее поле первое
Бит/(Пиксели*Кадры) : 0.431
Размер потока : 165 МиБ (93%)
Аудио
Идентификатор : 192 (0xC0)
Формат : MPEG Audio
Версия формата : Version 1
Профайл формата : Layer 2
Продолжительность : 5 м. 37 с.
Вид битрейта : Постоянный
Битрейт : 224 Кбит/сек
Канал(ы) : 2 канала(ов)
Частота : 48,0 КГц
Размер потока : 9,01 МиБ (5%)

Тех.данные и скриншоты видеоклипа #2

Видео
Идентификатор : 224 (0xE0)
Формат : MPEG Video
Версия формата : Version 1
Параметры BVOP формата : Да
Параметры матрицы формата : По умолчанию
Продолжительность : 5 м. 37 с.
Вид битрейта : Постоянный
Битрейт : 1700 Кбит/сек
Ширина : 720 пикс.
Высота : 528 пикс.
Соотношение кадра : 3:2
Частота кадров : 25,000 кадр/сек
ColorSpace : YUV
BitDepth/String : 8 бит
Тип развёртки : Прогрессивная
Бит/(Пиксели*Кадры) : 0.179
Размер потока : 67,6 МиБ (86%)
Аудио
Идентификатор : 192 (0xC0)
Формат : MPEG Audio
Версия формата : Version 1
Профайл формата : Layer 2
Продолжительность : 5 м. 37 с.
Вид битрейта : Постоянный
Битрейт : 224 Кбит/сек
Канал(ы) : 2 канала(ов)
Частота : 48,0 КГц
Размер потока : 9,01 МиБ (12%)

Лог создания рипа

Exact Audio Copy V0.99 prebeta 5 from 4. May 2009
Отчёт EAC об извлечении, выполненном 19. сентября 2010, 15:26
кипелов / Реки Времен
Дисковод: PIONEER DVD-RW DVR-215 Adapter: 2 ID: 0
Режим чтения : ДостоверностьИспользование точного потока : ДаОтключение кэша аудио : ДаИспользование указателей C2 : Нет
Коррекция смещения при чтении : 48Способность читать области Lead-in и Lead-out : НетЗаполнение пропущенных сэмплов тишиной : ДаУдаление блоков с тишиной в начале и конце : НетПри вычислениях CRC использовались нулевые сэмплы : ДаИнтерфейс : Встроенный Win32-интерфейс для Win NT/2000
Выходной формат : Внутренние WAV-операцииФормат сэмплов : 44.100 Гц; 16 бит; стерео
TOC извлечённого CD
Трек | Старт | Длительность | Начальный сектор | Конечный сектор --------------------------------------------------------------------- 1 | 0:00.00 | 5:01.34 | 0 | 22608 2 | 5:01.34 | 5:07.21 | 22609 | 45654 3 | 10:08.55 | 5:26.58 | 45655 | 70162 4 | 15:35.38 | 4:55.21 | 70163 | 92308 5 | 20:30.59 | 6:36.63 | 92309 | 122071 6 | 27:07.47 | 5:38.41 | 122072 | 147462 7 | 32:46.13 | 5:38.19 | 147463 | 172831 8 | 38:24.32 | 4:56.41 | 172832 | 195072 9 | 43:20.73 | 4:57.15 | 195073 | 217362 10 | 50:50.13 | 29:06.62 | 228763 | 359774
Характеристики диапазона извлечения и сообщения об ошибках
Выбранный диапазон
Имя файла C:\кипелов - Реки Времен.wav
Пиковый уровень 100.0 % Качество диапазона 100.0 % CRC теста 5F9341BA CRC копии 5F9341BA Копирование... OK
Ошибок не произошло
AccurateRip: сводка
Трек 1 точное извлечение (доверие 6) [953EF727]Трек 2 точное извлечение (доверие 6) [947DFC86]Трек 3 точное извлечение (доверие 6) [0627CBE5]Трек 4 точное извлечение (доверие 6) [A4AAD913]Трек 5 точное извлечение (доверие 6) [FC13A7CB]Трек 6 точное извлечение (доверие 6) [3F575F87]Трек 7 точное извлечение (доверие 6) [D1AF42A9]Трек 8 точное извлечение (доверие 6) [CE4C799D]Трек 9 точное извлечение (доверие 6) [AE780464]
Все треки извлечены точно
Конец отчёта

2006 - Москва'2005 (live)

Год издания: 2006
Издатель (лейбл): CD-Maximum
Номер по каталогу: CDM 0850-2586
Риппер: karejo128989
Треклист:
01. На распутье (5:09)
02. Дыханье тьмы (5:28)
03. Вавилон (6:04)
04. Наважденье (5:54)
05. Я свободен (7:17)
06. Путь в никуда (5:48)
07. Смутное время (6:41)
08. Я здесь (5:45)
09. Пророк (5:43)
10. Грязь (4:41)
11. Следуй за мной (4:43)
12. Путь наверх (8:26)

Лог создания рипа

Exact Audio Copy V0.99 prebeta 5 from 4. May 2009
Отчёт EAC об извлечении, выполненном 27. января 2011, 0:47
Кипелов / Москва '2005
Дисковод: Optiarc DVD RW AD-7261S Adapter: 2 ID: 0
Режим чтения : ДостоверностьИспользование точного потока : ДаОтключение кэша аудио : ДаИспользование указателей C2 : Нет
Коррекция смещения при чтении : 48Способность читать области Lead-in и Lead-out : НетЗаполнение пропущенных сэмплов тишиной : ДаУдаление блоков с тишиной в начале и конце : НетПри вычислениях CRC использовались нулевые сэмплы : ДаИнтерфейс : Встроенный Win32-интерфейс для Win NT/2000
Выходной формат : Пользовательский кодировщикВыбранный битрейт : 128 kBit/sКачество : ВысокийДобавление ID3-тэга : НетУтилита сжатия : C:\Program Files\Exact Audio Copy\Flac\flac.exeДополнительные параметры : -T "DATE=%y" -T "GENRE=%m" -8 -V %s
TOC извлечённого CD
Трек | Старт | Длительность | Начальный сектор | Конечный сектор --------------------------------------------------------------------- 1 | 0:00.00 | 5:09.36 | 0 | 23210 2 | 5:09.36 | 5:27.39 | 23211 | 47774 3 | 10:37.00 | 6:04.06 | 47775 | 75080 4 | 16:41.06 | 5:53.60 | 75081 | 101615 5 | 22:34.66 | 7:17.15 | 101616 | 134405 6 | 29:52.06 | 5:47.46 | 134406 | 160476 7 | 35:39.52 | 6:40.55 | 160477 | 190531 8 | 42:20.32 | 5:45.13 | 190532 | 216419 9 | 48:05.45 | 5:42.42 | 216420 | 242111 10 | 53:48.12 | 4:40.56 | 242112 | 263167 11 | 58:28.68 | 4:43.05 | 263168 | 284397 12 | 63:11.73 | 8:25.51 | 284398 | 322323
Характеристики диапазона извлечения и сообщения об ошибках
Выбранный диапазон
Имя файла C:\Users\Seiya\Desktop\Новая папка\Кипелов - Москва '2005.wav
Пиковый уровень 97.7 % Качество диапазона 100.0 % CRC теста CA490A5C CRC копии CA490A5C Копирование... OK
Ошибок не произошло
AccurateRip: сводка
Трек 1 точное извлечение (доверие 5) [5B17682B]Трек 2 точное извлечение (доверие 5) [E3908976]Трек 3 точное извлечение (доверие 5) [BF94B0E9]Трек 4 точное извлечение (доверие 5) [C4F9D28C]Трек 5 точное извлечение (доверие 5) [4F6C5CB2]Трек 6 точное извлечение (доверие 5) [9F96507A]Трек 7 точное извлечение (доверие 5) [CFD41DF8]Трек 8 точное извлечение (доверие 5) [6E23366A]Трек 9 точное извлечение (доверие 5) [2DBB7581]Трек 10 точное извлечение (доверие 5) [CED6E33F]Трек 11 точное извлечение (доверие 5) [ABB0AF4B]Трек 12 точное извлечение (доверие 5) [F625D66F]
Все треки извлечены точно
Конец отчёта

2007 - Реки Времён

Год издания: 2007
Издатель (лейбл): CD-Maximum
Номер по каталогу: CDM 0850-2359
Риппер: Drgar
Треклист:
01. На распутье (5:01)
02. Дыханье Тьмы (5:06)
03. Пророк (5:30)
04. Не сейчас (4:54)
05. Матричный Бог (6:33)
06. Я здесь (5:38)
07. Наважденье (5:37)
08. Реки Времён (4:58)
09. Призрачный Взвод (5:00)
Bonus: видеоклип на песню "Не сейчас"

Лог создания рипа

Exact Audio Copy V1.0 beta 1 from 15. November 2010
EAC extraction logfile from 24. January 2011, 14:32
Кипелов / Реки Времён
Used drive : ASUS DRW-24B1LT Adapter: 11 ID: 12
Read mode : SecureUtilize accurate stream : YesDefeat audio cache : YesMake use of C2 pointers : No
Read offset correction : 6Overread into Lead-In and Lead-Out : NoFill up missing offset samples with silence : YesDelete leading and trailing silent blocks : NoNull samples used in CRC calculations : YesUsed interface : Native Win32 interface for Win NT & 2000
Used output format : User Defined EncoderSelected bitrate : 1024 kBit/sQuality : HighAdd ID3 tag : NoCommand line compressor : C:\Program Files (x86)\Exact Audio Copy\Flac\flac.exeAdditional command line options : -8 -V %s
TOC of the extracted CD
Track | Start | Length | Start sector | End sector --------------------------------------------------------- 1 | 0:00.00 | 5:00.49 | 0 | 22548 2 | 5:00.49 | 5:05.74 | 22549 | 45497 3 | 10:06.48 | 5:30.01 | 45498 | 70248 4 | 15:36.49 | 4:54.11 | 70249 | 92309 5 | 20:30.60 | 6:32.70 | 92310 | 121779 6 | 27:03.55 | 5:38.08 | 121780 | 147137 7 | 32:41.63 | 5:37.06 | 147138 | 172418 8 | 38:18.69 | 4:58.02 | 172419 | 194770 9 | 43:16.71 | 5:00.36 | 194771 | 217306 10 | 50:49.32 | 4:43.44 | 228707 | 249975
Range status and errors
Selected range
Filename C:\Users\Drgar\Desktop\Кипелов\2007 - Реки Времён\Кипелов - Реки Времён.wav
Peak level 100.0 % Extraction speed 0.2 X Range quality 100.0 % Test CRC 1FF19498 Copy CRC 1FF19498 Copy OK
No errors occurred
AccurateRip summary
Track 1 accurately ripped (confidence 11) [D97D96D4]Track 2 accurately ripped (confidence 11) [4E51F0C9]Track 3 accurately ripped (confidence 11) [2BE18A70]Track 4 accurately ripped (confidence 11) [6C38E6AF]Track 5 accurately ripped (confidence 11) [8B31B503]Track 6 accurately ripped (confidence 11) [7A411074]Track 7 accurately ripped (confidence 11) [2A3AFA07]Track 8 accurately ripped (confidence 11) [AC49A59C]Track 9 accurately ripped (confidence 11) [0D7D8980]
All tracks accurately ripped
End of status report

2008 - V (live)

Год издания: 2008
Издатель (лейбл): CD-Maximum
Номер по каталогу: CDM 0608-2887 / CDM 0608-2888
Риппер: Drgar
Треклист:
CD 1
01. Путь наверх (9:23)
02. Дыханье тьмы (5:14)
03. Вавилон (6:04)
04. Наваждение (5:57)
05. Я здесь (5:45)
06. Пророк (6:32)
07. Не Сейчас (5:23)
08. Смутное время (5:46)
09. Никто (5:15)
10. Без тебя (4:36)
CD 2
01. На распутье (6:02)
02. Матричный Бог (7:01)
03. Грязь (4:41)
04. Путь в никуда (6:01)
05. Реки времён (5:16)
06. Следуй за мной (4:36)
07. Призрачный взвод (6:30)
08. Я свободен (7:27)
09. Воля и разум (9:42)

Лог создания рипа

CD 1

Exact Audio Copy V1.0 beta 1 from 15. November 2010
EAC extraction logfile from 24. January 2011, 15:25
Кипелов / V (CD1)
Used drive : ASUS DRW-24B1LT Adapter: 11 ID: 12
Read mode : SecureUtilize accurate stream : YesDefeat audio cache : YesMake use of C2 pointers : No
Read offset correction : 6Overread into Lead-In and Lead-Out : NoFill up missing offset samples with silence : YesDelete leading and trailing silent blocks : NoNull samples used in CRC calculations : YesUsed interface : Native Win32 interface for Win NT & 2000
Used output format : User Defined EncoderSelected bitrate : 1024 kBit/sQuality : HighAdd ID3 tag : NoCommand line compressor : C:\Program Files (x86)\Exact Audio Copy\Flac\flac.exeAdditional command line options : -8 -V %s
TOC of the extracted CD
Track | Start | Length | Start sector | End sector --------------------------------------------------------- 1 | 0:00.00 | 9:23.18 | 0 | 42242 2 | 9:23.18 | 5:14.23 | 42243 | 65815 3 | 14:37.41 | 6:04.06 | 65816 | 93121 4 | 20:41.47 | 5:57.30 | 93122 | 119926 5 | 26:39.02 | 5:44.61 | 119927 | 145787 6 | 32:23.63 | 6:32.26 | 145788 | 175213 7 | 38:56.14 | 5:23.04 | 175214 | 199442 8 | 44:19.18 | 5:45.39 | 199443 | 225356 9 | 50:04.57 | 5:15.04 | 225357 | 248985 10 | 55:19.61 | 4:35.42 | 248986 | 269652
Range status and errors
Selected range
Filename C:\Users\Drgar\Desktop\Кипелов\2008 - V (live)\CD 1\Кипелов - V (CD1).wav
Peak level 99.8 % Extraction speed 0.1 X Range quality 100.0 % Test CRC DFCA8F80 Copy CRC DFCA8F80 Copy OK
No errors occurred
AccurateRip summary
Track 1 accurately ripped (confidence 2) [71D5E323]Track 2 accurately ripped (confidence 2) [327E9CEE]Track 3 accurately ripped (confidence 2) [1E6506CC]Track 4 accurately ripped (confidence 2) [E011C874]Track 5 accurately ripped (confidence 2) [DA056363]Track 6 accurately ripped (confidence 2) [A26A5818]Track 7 accurately ripped (confidence 2) [24FEC0BA]Track 8 accurately ripped (confidence 2) [B0A3748B]Track 9 accurately ripped (confidence 2) [E4DAAD31]Track 10 accurately ripped (confidence 2) [5E4B233A]
All tracks accurately ripped
End of status report

CD 2

Exact Audio Copy V1.0 beta 1 from 15. November 2010
EAC extraction logfile from 24. January 2011, 16:13
Кипелов / V (CD 2)
Used drive : ASUS DRW-24B1LT Adapter: 11 ID: 12
Read mode : SecureUtilize accurate stream : YesDefeat audio cache : YesMake use of C2 pointers : No
Read offset correction : 6Overread into Lead-In and Lead-Out : NoFill up missing offset samples with silence : YesDelete leading and trailing silent blocks : NoNull samples used in CRC calculations : YesUsed interface : Native Win32 interface for Win NT & 2000
Used output format : User Defined EncoderSelected bitrate : 1024 kBit/sQuality : HighAdd ID3 tag : NoCommand line compressor : C:\Program Files (x86)\Exact Audio Copy\Flac\flac.exeAdditional command line options : -8 -V %s
TOC of the extracted CD
Track | Start | Length | Start sector | End sector --------------------------------------------------------- 1 | 0:00.00 | 6:02.37 | 0 | 27186 2 | 6:02.37 | 7:00.43 | 27187 | 58729 3 | 13:03.05 | 4:41.27 | 58730 | 79831 4 | 17:44.32 | 6:01.08 | 79832 | 106914 5 | 23:45.40 | 5:16.30 | 106915 | 130644 6 | 29:01.70 | 4:35.50 | 130645 | 151319 7 | 33:37.45 | 6:30.08 | 151320 | 180577 8 | 40:07.53 | 7:27.06 | 180578 | 214108 9 | 47:34.59 | 9:42.26 | 214109 | 257784
Range status and errors
Selected range
Filename C:\Users\Drgar\Desktop\Кипелов\2008 - V (live)\CD 2\Кипелов - V (CD 2).wav
Peak level 99.8 % Extraction speed 0.5 X Range quality 100.0 % Test CRC ED2E892A Copy CRC ED2E892A Copy OK
No errors occurred
AccurateRip summary
Track 1 accurately ripped (confidence 2) [D0636379]Track 2 accurately ripped (confidence 2) [B844D662]Track 3 accurately ripped (confidence 2) [CF85DE4F]Track 4 accurately ripped (confidence 2) [969E9C5D]Track 5 accurately ripped (confidence 2) [B31E0FE4]Track 6 accurately ripped (confidence 2) [68592CC3]Track 7 accurately ripped (confidence 2) [F0E084CF]Track 8 accurately ripped (confidence 2) [3703FC72]Track 9 accurately ripped (confidence 2) [6DFBFF35]
All tracks accurately ripped
End of status report
Доп. информация:
Полная дискография группы "Кипелов" + альбом проекта Кипелова и Маврина - "Смутное время".

[Цитировать]

Топик был перенесен из форума Новинки кинопроката (HD Video) в форум Метал (lossless)
Morpheus



Показать сообщения:    

Текущее время: 05-Дек 03:27

Часовой пояс: UTC + 3


Вы не можете начинать темы
Вы не можете отвечать на сообщения
Вы не можете редактировать свои сообщения
Вы не можете удалять свои сообщения
Вы не можете голосовать в опросах
Вы не можете прикреплять файлы к сообщениям
Вы не можете скачивать файлы

!ВНИМАНИЕ!
Сайт не предоставляет электронные версии произведений, а занимается лишь коллекционированием и каталогизацией ссылок, присылаемых и публикуемых на форуме нашими читателями. Если вы являетесь правообладателем какого-либо представленного материала и не желаете, чтобы ссылка на него находилась в нашем каталоге, свяжитесь с нами, и мы незамедлительно удалим ее. Файлы для обмена на трекере предоставлены пользователями сайта, и администрация не несет ответственности за их содержание. Просьба не заливать файлы, защищенные авторскими правами, а также файлы нелегального содержания!