[ Сегодня идет свободное скачивание без начисления Download ]


Статистика раздачи
Нет
 
   
 
Top  
 
 
Гнев призрака / Headhunter«Severance For Your Soul.»
Год выпуска: 2005
Страна: США
Производство: Toasted Films
Жанр: ужасы, триллер
Режиссер: Пол Тарантино
В ролях: Марк Аикен, Джозеф Альфьери Рене, Вайссер Тимоти, Томас Браун, Мэтт Бушнелл, Криста Карпентер, Кристи Клэйнос, Пол Фаннинг, Патрик Хассон
Перевод: Профессиональный (многоголосый, закадровый)
Субтитры: Отсутствуют
Описание: Получив по протекции друга ночную работу в офисе, Бен Карусо в первую же ночь знакомится с Сарой Терней. В одно мгновение между ними вспыхивает страсть. Но вскоре Бен с ужасом узнает, что несколько лет назад его новая возлюбленная была зверски убита. Тело нашли обезглавленным и похоронили. Теперь призрак Сары требует, чтобы в течение двух дней Бен раскрыл тайну ее смерти. Иначе весь свой гнев она обрушит на него…

Качество: DVDRip
Продолжительность: 01:27:32
Формат: AVI
Видео кодек: DivX
Аудио кодек: AC3
Видео: 672x384 (16:9), 25 fps, DivX Codec 6.8.5/6.9.1 ~1842 kbps avg, 0.28 bit/pixel
Аудио: 48 kHz, AC3 Dolby Digital, 3/2 (L,C,R,l,r) + LFE ch, ~384 kbps

Media Info

General
Complete name                  : D:\фильмы\Gnev.prizraka.2005.DVDRip.avi
Format                         : AVI
Format/Info                    : Audio Video Interleave
File size                      : 1.37 GiB
Duration                       : 1h 27mn
Overall bit rate               : 2 236 Kbps
Writing application            : FairUse Wizard - http://fairusewizard.com
Writing library                : The best and REALLY easy backup tool
Video
ID                             : 0
Format                         : MPEG-4 Visual
Format settings, BVOP          : 1
Format settings, QPel          : No
Format settings, GMC           : No warppoints
Format settings, Matrix        : Default (H.263)
Muxing mode                    : Packed bitstream
Codec ID                       : DX50
Codec ID/Hint                  : DivX 5
Duration                       : 1h 27mn
Bit rate                       : 1 842 Kbps
Width                          : 672 pixels
Height                         : 384 pixels
Display aspect ratio           : 16:9
Frame rate                     : 25.000 fps
Color space                    : YUV
Chroma subsampling             : 4:2:0
Bit depth                      : 8 bits
Scan type                      : Progressive
Compression mode               : Lossy
Bits/(Pixel*Frame)             : 0.286
Stream size                    : 1.13 GiB (82%)
Writing library                : DivX 6.8.5 (UTC 2009-08-20)
Audio
ID                             : 1
Format                         : AC-3
Format/Info                    : Audio Coding 3
Mode extension                 : CM (complete main)
Codec ID                       : 2000
Duration                       : 1h 27mn
Bit rate mode                  : Constant
Bit rate                       : 384 Kbps
Channel(s)                     : 6 channels
Channel positions              : Front: L C R, Side: L R, LFE
Sampling rate                  : 48.0 KHz
Bit depth                      : 16 bits
Compression mode               : Lossy
Stream size                    : 240 MiB (17%)
Alignment                      : Split accross interleaves
Interleave, duration           : 40 ms (1.00 video frame)
Interleave, preload duration   : 500 ms

Скриншоты

[Цитировать]



Показать сообщения:    

Текущее время: 22-Фев 02:24

Часовой пояс: UTC + 3


Вы не можете начинать темы
Вы не можете отвечать на сообщения
Вы не можете редактировать свои сообщения
Вы не можете удалять свои сообщения
Вы не можете голосовать в опросах
Вы не можете прикреплять файлы к сообщениям
Вы не можете скачивать файлы

!ВНИМАНИЕ!
Сайт не предоставляет электронные версии произведений, а занимается лишь коллекционированием и каталогизацией ссылок, присылаемых и публикуемых на форуме нашими читателями. Если вы являетесь правообладателем какого-либо представленного материала и не желаете, чтобы ссылка на него находилась в нашем каталоге, свяжитесь с нами, и мы незамедлительно удалим ее. Файлы для обмена на трекере предоставлены пользователями сайта, и администрация не несет ответственности за их содержание. Просьба не заливать файлы, защищенные авторскими правами, а также файлы нелегального содержания!