[ Today is free to download without increasing Download ]

DL-List and Torrent activity
Гнев призрака / Headhunter«Severance For Your Soul.»
Год выпуска: 2005
Страна: США
Производство: Toasted Films
Жанр: ужасы, триллер
Режиссер: Пол Тарантино
В ролях: Марк Аикен, Джозеф Альфьери Рене, Вайссер Тимоти, Томас Браун, Мэтт Бушнелл, Криста Карпентер, Кристи Клэйнос, Пол Фаннинг, Патрик Хассон
Перевод: Профессиональный (многоголосый, закадровый)
Субтитры: Отсутствуют
Описание: Получив по протекции друга ночную работу в офисе, Бен Карусо в первую же ночь знакомится с Сарой Терней. В одно мгновение между ними вспыхивает страсть. Но вскоре Бен с ужасом узнает, что несколько лет назад его новая возлюбленная была зверски убита. Тело нашли обезглавленным и похоронили. Теперь призрак Сары требует, чтобы в течение двух дней Бен раскрыл тайну ее смерти. Иначе весь свой гнев она обрушит на него…

Качество: DVDRip
Продолжительность: 01:27:32
Формат: AVI
Видео кодек: DivX
Аудио кодек: AC3
Видео: 672x384 (16:9), 25 fps, DivX Codec 6.8.5/6.9.1 ~1842 kbps avg, 0.28 bit/pixel
Аудио: 48 kHz, AC3 Dolby Digital, 3/2 (L,C,R,l,r) + LFE ch, ~384 kbps

Media Info

Complete name                  : D:\фильмы\Gnev.prizraka.2005.DVDRip.avi
Format                         : AVI
Format/Info                    : Audio Video Interleave
File size                      : 1.37 GiB
Duration                       : 1h 27mn
Overall bit rate               : 2 236 Kbps
Writing application            : FairUse Wizard - http://fairusewizard.com
Writing library                : The best and REALLY easy backup tool
ID                             : 0
Format                         : MPEG-4 Visual
Format settings, BVOP          : 1
Format settings, QPel          : No
Format settings, GMC           : No warppoints
Format settings, Matrix        : Default (H.263)
Muxing mode                    : Packed bitstream
Codec ID                       : DX50
Codec ID/Hint                  : DivX 5
Duration                       : 1h 27mn
Bit rate                       : 1 842 Kbps
Width                          : 672 pixels
Height                         : 384 pixels
Display aspect ratio           : 16:9
Frame rate                     : 25.000 fps
Color space                    : YUV
Chroma subsampling             : 4:2:0
Bit depth                      : 8 bits
Scan type                      : Progressive
Compression mode               : Lossy
Bits/(Pixel*Frame)             : 0.286
Stream size                    : 1.13 GiB (82%)
Writing library                : DivX 6.8.5 (UTC 2009-08-20)
ID                             : 1
Format                         : AC-3
Format/Info                    : Audio Coding 3
Mode extension                 : CM (complete main)
Codec ID                       : 2000
Duration                       : 1h 27mn
Bit rate mode                  : Constant
Bit rate                       : 384 Kbps
Channel(s)                     : 6 channels
Channel positions              : Front: L C R, Side: L R, LFE
Sampling rate                  : 48.0 KHz
Bit depth                      : 16 bits
Compression mode               : Lossy
Stream size                    : 240 MiB (17%)
Alignment                      : Split accross interleaves
Interleave, duration           : 40 ms (1.00 video frame)
Interleave, preload duration   : 500 ms



Display posts:    

Current time is: 26-Oct 18:19

All times are UTC + 3

You cannot post new topics in this forum
You cannot reply to topics in this forum
You cannot edit your posts in this forum
You cannot delete your posts in this forum
You cannot vote in polls in this forum
You cannot attach files in this forum
You cannot download files in this forum

The site does not give electronic versions of products, and is engaged only in a collecting and cataloguing of the references sent and published at a forum by our readers. If you are the legal owner of any submitted material and do not wish that the reference to it was in our catalogue, contact us and we shall immediately remove her. Files for an exchange on tracker are given by users of a site, and the administration does not bear the responsibility for their maintenance. The request to not fill in the files protected by copyrights, and also files of the illegal maintenance!