[ Сегодня идет свободное скачивание без начисления Download ]


Статистика раздачи
Нет
 
   
 
Top  
 
 

Информация о фильме
Название: Одержимость
Оригинальное название: Obsessed
Год выхода: 2009
Жанр: Триллер, драма, криминал
Режиссер: Стив Шилл / Steve Shill
В ролях: Идрис Эльба, Бейонсе Ноулз, Эли Лартер, Джерри О`Коннелл, Бонни Перлман, Кристин Лахти, Натан Майерс, Николас Майерс, Мэттью Хэмпфри, Скаут Тэйлор-Комптон
О фильме:
Пока вы это скрываете — вы невиновны! Когда вы разоблачаете себя — вы виновны во всем! А истина лежит где-то посередине! Так стоит ли играть в игру, которая несет реальность под откос?
Преуспевающий финансовый менеджер — акула бизнеса и обладатель сногсшибательной жены-красотки — вдруг становится объектом непреодолимой страсти новой работницы фирмы. Баловню судьбы импонирует интригующий и бурный поворот событий, пока офисный флирт не превращается в террор, ставящий под угрозу всю его жизнь!
Возможно ли предугадать исход, если на смену реальности и фактам приходят фантазии, слепая страсть, ОДЕРЖИМОСТЬ?

Страна: США
Продолжительность: 01:48:22час.
Перевод: Профессиональный (многоголосый закадровый)
Файл
Кодек: x264
Качество: BDRip 1080p (источник: BD Remux)
Видео: 1920x800 (2,40:1), 23.976 fps, 9553 kbps
Аудио: AC-3, 6 ch, 640 kbps (Rus) MVO
Субтитры: Русские (на надписи и полные), английские.

Скриншоты

MediaInfo

Общее
Уникальный идентификатор : 231946492518459728801026706922761183430 (0xAE7F4500D0B1C4EB8A25CE81F61D60C6)
Полное имя : F:Одержимость.2009.Obsessed.mkv
Формат : Matroska
Версия формата : Version 2
Размер файла : 7,87 Гбайт
Продолжительность : 1 ч. 48 м.
Общий поток : 10,4 Мбит/сек
Название фильма : Одержимость.2009.Obsessed
Дата кодирования : UTC 2013-09-05 10:44:55
Программа кодирования : mkvmerge v5.8.0 ('No Sleep / Pillow') built on Sep 2 2012 15:37:04
Библиотека кодирования : libebml v1.2.3 + libmatroska v1.3.0
Видео
Идентификатор : 1
Формат : AVC
Формат/Информация : Advanced Video Codec
Профиль формата : High@L4.1
Параметр CABAC формата : Да
Параметр ReFrames формата : 5 кадров
Идентификатор кодека : V_MPEG4/ISO/AVC
Продолжительность : 1 ч. 48 м.
Битрейт : 9553 Кбит/сек
Ширина : 1920 пикселей
Высота : 800 пикселей
Соотношение сторон : 2,40:1
Режим частоты кадров : Постоянный
Частота кадров : 23,976 кадра/сек
Цветовое пространство : YUV
Субдискретизация насыщенности : 4:2:0
Битовая глубина : 8 бит
Тип развёртки : Прогрессивная
Бит/(Пиксели*Кадры) : 0.259
Размер потока : 7,23 Гбайт (92%)
Библиотека кодирования : x264 core 128 r2216M 198a7ea
Настройки программы : cabac=1 / ref=5 / deblock=1:0:0 / analyse=0x3:0x133 / me=umh / subme=10 / psy=1 / psy_rd=1.00:0.00 / mixed_ref=1 / me_range=32 / chroma_me=1 / trellis=2 / 8x8dct=1 / cqm=0 / deadzone=21,11 / fast_pskip=1 / chroma_qp_offset=-2 / threads=4 / lookahead_threads=1 / sliced_threads=0 / nr=0 / decimate=1 / interlaced=0 / bluray_compat=0 / constrained_intra=0 / bframes=8 / b_pyramid=2 / b_adapt=2 / b_bias=0 / direct=3 / weightb=1 / open_gop=0 / weightp=2 / keyint=240 / keyint_min=23 / scenecut=40 / intra_refresh=0 / rc=crf / mbtree=0 / crf=20.0 / qcomp=0.60 / qpmin=10 / qpmax=69 / qpstep=4 / ip_ratio=1.40 / pb_ratio=1.30 / aq=1:1.00
Язык : English
Default : Да
Forced : Нет
Аудио
Идентификатор : 2
Формат : AC-3
Формат/Информация : Audio Coding 3
Расширение режима : CM (complete main)
Параметр Endianness формата : Big
Идентификатор кодека : A_AC3
Продолжительность : 1 ч. 48 м.
Вид битрейта : Постоянный
Битрейт : 640 Кбит/сек
Каналы : 6 каналов
Расположение каналов : Front: L C R, Side: L R, LFE
Частота : 48,0 КГц
Битовая глубина : 16 бит
Метод сжатия : С потерями
Размер потока : 496 Мбайт (6%)
Заголовок : MVO AC3 5.1 640 kbps
Язык : Russian
Default : Да
Forced : Нет
Текст #1
Идентификатор : 3
Формат : UTF-8
Идентификатор кодека : S_TEXT/UTF8
Идентификатор кодека/Информация : UTF-8 Plain Text
Заголовок : Только надписи
Язык : Russian
Default : Нет
Forced : Нет
Текст #2
Идентификатор : 4
Формат : UTF-8
Идентификатор кодека : S_TEXT/UTF8
Идентификатор кодека/Информация : UTF-8 Plain Text
Язык : Russian
Default : Нет
Forced : Нет
Текст #3
Идентификатор : 5
Формат : UTF-8
Идентификатор кодека : S_TEXT/UTF8
Идентификатор кодека/Информация : UTF-8 Plain Text
Язык : English
Default : Нет
Forced : Нет
Меню
00:00:00.000 : :Chapter 01
00:04:48.579 : :Chapter 02
00:11:12.630 : :Chapter 03
00:21:10.352 : :Chapter 04
00:29:21.634 : :Chapter 05
00:36:23.598 : :Chapter 06
00:45:00.280 : :Chapter 07
00:49:27.381 : :Chapter 08
00:58:34.219 : :Chapter 09
01:04:58.978 : :Chapter 10
01:14:57.409 : :Chapter 11
01:19:21.631 : :Chapter 12
01:26:31.186 : :Chapter 13
01:33:03.494 : :Chapter 14
01:38:49.173 : :Chapter 15
01:43:42.925 : :Chapter 16

x264

frame I:1198 Avg QP:18.99 size:155411
frame P:30149 Avg QP:19.83 size: 88232
frame B:124561 Avg QP:21.65 size: 40829

[Цитировать]



Показать сообщения:    

Текущее время: 07-Дек 17:33

Часовой пояс: UTC + 3


Вы не можете начинать темы
Вы не можете отвечать на сообщения
Вы не можете редактировать свои сообщения
Вы не можете удалять свои сообщения
Вы не можете голосовать в опросах
Вы не можете прикреплять файлы к сообщениям
Вы не можете скачивать файлы

!ВНИМАНИЕ!
Сайт не предоставляет электронные версии произведений, а занимается лишь коллекционированием и каталогизацией ссылок, присылаемых и публикуемых на форуме нашими читателями. Если вы являетесь правообладателем какого-либо представленного материала и не желаете, чтобы ссылка на него находилась в нашем каталоге, свяжитесь с нами, и мы незамедлительно удалим ее. Файлы для обмена на трекере предоставлены пользователями сайта, и администрация не несет ответственности за их содержание. Просьба не заливать файлы, защищенные авторскими правами, а также файлы нелегального содержания!