[ Сегодня идет свободное скачивание без начисления Download ]


Статистика раздачи
Нет
 
   
 
Top  
 
 

Информация о фильме
Название: На линии огня
Оригинальное название: In the Line of Fire
Год выхода: 1993
Жанр: Боевик, триллер, драма, криминал, детектив
Режиссер: Вольфганг Петерсен
В ролях: Клинт Иствуд, Джон Малкович, Рене Руссо, Дилан МакДермотт, Гэри Коул, Фред Долтон Томпсон, Джон Махони, Грегори Алан Уильямс, Джим Кёрли, Сэлли Хьюз
О фильме:
В тот злополучный день, когда в Далласе был убит президент Кеннеди, Фрэнк Хорриган находился среди охраны. Воспоминания о невыполненной миссии уже много лет не дают ему спать спокойно.
Спустя 30 лет маньяк-психопат, угрожающий убить президента, выбирает Фрэнка мишенью для преследования. И в этой опасной игре только сила воли решит, кто останется в живых…

Страна: США
Студия: Sony Pictures Imageworks, R/Greenberg Associates (West) Inc.
Продолжительность: 02:08:37 час.
Перевод: Дублированный |Blu-ray CEE| + Оригинал
Файл
Кодек: x264
Качество: BDRip 1080p (источник: Blu-ray Disc / 1080p)
Видео: 1920х800 (2.40:1), 7572 Kbps, 23.976 fps, 0.206 bit/pixel
Аудио #1: 48.0 kHz, AC3 Dolby Digital, 3/2 (L,C,R,l,r) + LFE ch, 640 kbps Дубляж, Blu-ray CEE
Аудио #2: 48.0 kHz, AC3 Dolby Digital, 3/2 (L,C,R,l,r) + LFE ch, 640 kbps [Английский]
Субтитры: Русские, английские [полные, SDH]
Размер: 7.95 GB
Отдельно в папке:
Аудио #3: 48.0 kHz, AC3 Dolby Digital, 2/0 (L,R) ch, 192 kbps [Многоголосый, телеканал ОРТ]
Аудио #4: 48.0 kHz, AC3 Dolby Digital, 3/2 (L,C,R,l,r) + LFE ch, 448 kbps [Многоголосый, Видеосервис]
Аудио #5: 48.0 kHz, AC3 Dolby Digital, 3/2 (L,C,R,l,r) + LFE ch, 384 kbps [Авторский, А. Гаврилов]
Аудио #6: 48.0 kHz, AC3 Dolby Digital, 3/2 (L,C,R,l,r) + LFE ch, 640 kbps [Авторский, Ю. Живов]
Семпл

Скриншоты

x264

x264 [info]: frame I:1463 Avg QP:14.58 size:153908
x264 [info]: frame P:49822 Avg QP:17.23 size: 66970
x264 [info]: frame B:133731 Avg QP:18.49 size: 27953

MediaInfo

General
Unique ID : 177648038574110811604320291199505133110 (0x85A5C4885330DEC686F8CBAE35FFEE36)
Complete name : E:In.the.Line.of.Fire.1993.x264.BDRip.1080pIn.the.Line.of.Fire.1993.x264.BDRip.1080p.mkv
Format : Matroska
Format version : Version 2
File size : 7.95 GiB
Duration : 2h 8mn
Overall bit rate : 8 850 Kbps
Encoded date : UTC 2013-09-05 17:34:06
Writing application : mkvmerge v5.8.0 ('No Sleep / Pillow') built on Sep 2 2012 15:37:04
Writing library : libebml v1.2.3 + libmatroska v1.3.0
Video
ID : 1
Format : AVC
Format/Info : Advanced Video Codec
Format profile : High@L4.1
Format settings, CABAC : Yes
Format settings, ReFrames : 5 frames
Codec ID : V_MPEG4/ISO/AVC
Duration : 2h 8mn
Bit rate : 7 572 Kbps
Width : 1 920 pixels
Height : 800 pixels
Display aspect ratio : 2.40:1
Frame rate mode : Constant
Frame rate : 23.976 fps
Color space : YUV
Chroma subsampling : 4:2:0
Bit depth : 8 bits
Scan type : Progressive
Bits/(Pixel*Frame) : 0.206
Stream size : 6.64 GiB (84%)
Writing library : x264 core 135 r2345 f0c1c53
Encoding settings : cabac=1 / ref=5 / deblock=1:-3:-3 / analyse=0x3:0x133 / me=tesa / subme=11 / psy=1 / psy_rd=1.00:0.07 / mixed_ref=1 / me_range=32 / chroma_me=1 / trellis=2 / 8x8dct=1 / cqm=0 / deadzone=21,11 / fast_pskip=0 / chroma_qp_offset=-3 / threads=12 / lookahead_threads=1 / sliced_threads=0 / nr=0 / decimate=0 / interlaced=0 / bluray_compat=0 / constrained_intra=0 / bframes=4 / b_pyramid=2 / b_adapt=2 / b_bias=0 / direct=3 / weightb=1 / open_gop=0 / weightp=2 / keyint=240 / keyint_min=23 / scenecut=40 / intra_refresh=0 / rc=2pass / mbtree=0 / bitrate=7572 / ratetol=1.0 / qcomp=0.60 / qpmin=0 / qpmax=69 / qpstep=4 / cplxblur=20.0 / qblur=0.5 / ip_ratio=1.40 / pb_ratio=1.30 / aq=1:1.00
Language : English
Default : Yes
Forced : No
Audio #1
ID : 2
Format : AC-3
Format/Info : Audio Coding 3
Mode extension : CM (complete main)
Format settings, Endianness : Big
Codec ID : A_AC3
Duration : 2h 8mn
Bit rate mode : Constant
Bit rate : 640 Kbps
Channel(s) : 6 channels
Channel positions : Front: L C R, Side: L R, LFE
Sampling rate : 48.0 KHz
Bit depth : 16 bits
Compression mode : Lossy
Stream size : 589 MiB (7%)
Title : AC3 5.1ch 640 kbps - Дубляж, Blu-ray CEE
Language : Russian
Default : Yes
Forced : No
Audio #2
ID : 3
Format : AC-3
Format/Info : Audio Coding 3
Mode extension : CM (complete main)
Format settings, Endianness : Big
Codec ID : A_AC3
Duration : 2h 8mn
Bit rate mode : Constant
Bit rate : 640 Kbps
Channel(s) : 6 channels
Channel positions : Front: L C R, Side: L R, LFE
Sampling rate : 48.0 KHz
Bit depth : 16 bits
Compression mode : Lossy
Stream size : 589 MiB (7%)
Title : AC3 5.1ch 640 kbps - Английский
Language : English
Default : No
Forced : No
Text #1
ID : 4
Format : UTF-8
Codec ID : S_TEXT/UTF8
Codec ID/Info : UTF-8 Plain Text
Title : Русские
Language : Russian
Default : No
Forced : No
Text #2
ID : 5
Format : UTF-8
Codec ID : S_TEXT/UTF8
Codec ID/Info : UTF-8 Plain Text
Title : Английские
Language : English
Default : No
Forced : No
Text #3
ID : 6
Format : UTF-8
Codec ID : S_TEXT/UTF8
Codec ID/Info : UTF-8 Plain Text
Title : Английские [SDH]
Language : English
Default : No
Forced : No
Menu
00:00:00.000 : en:1
00:10:00.000 : en:2
00:20:00.000 : en:3
00:30:00.000 : en:4
00:40:00.000 : en:5
00:50:00.000 : en:6
01:00:00.000 : en:7
01:10:00.000 : en:8
01:20:00.000 : en:9
01:30:00.000 : en:10
01:40:00.000 : en:11
01:50:00.000 : en:12
02:00:00.000 : en:13

[Цитировать]



Показать сообщения:    

Текущее время: 23-Фев 12:24

Часовой пояс: UTC + 3


Вы не можете начинать темы
Вы не можете отвечать на сообщения
Вы не можете редактировать свои сообщения
Вы не можете удалять свои сообщения
Вы не можете голосовать в опросах
Вы не можете прикреплять файлы к сообщениям
Вы не можете скачивать файлы

!ВНИМАНИЕ!
Сайт не предоставляет электронные версии произведений, а занимается лишь коллекционированием и каталогизацией ссылок, присылаемых и публикуемых на форуме нашими читателями. Если вы являетесь правообладателем какого-либо представленного материала и не желаете, чтобы ссылка на него находилась в нашем каталоге, свяжитесь с нами, и мы незамедлительно удалим ее. Файлы для обмена на трекере предоставлены пользователями сайта, и администрация не несет ответственности за их содержание. Просьба не заливать файлы, защищенные авторскими правами, а также файлы нелегального содержания!