[ Сегодня идет свободное скачивание без начисления Download ]


Статистика раздачи
Нет
 
   
 
Top  
 
 
Информация о фильме
Название: [sh]Война миров Z[/sh]
Оригинальное название: [sh]World War Z[/sh]
Год выпуска: 2013
Жанр: ужасы, фантастика
Режиссёр: Марк Форстер
В ролях: Брэд Питт, Эрик Уэст, Мэттью Фокс, Дэвид Морс, Джеймс Бэдж Дэйл, Мирей Инос, Дэвид Эндрюс, Мишель Хайсмэн, Джулиан Сигер, Элайес Габел
О фильме: Сотрудник ООН Джерри Лэйн наперегонки со временем пытается остановить заражение, способное полностью истребить человечество.

Ограничение по возрасту: 12+
бюджет: $190 000 000
сборы в США: $200 865 872
сборы в мире: + $331 600 000 = $532 465 872 сборы
сборы в России: $24 670 141
Страна: США
Студия: Apparatus Productions, GK Films, Hemisphere Media Capital, Latina Pictures, Paramount Pictures, Plan B Entertainment, Skydance Productions
Продолжительность: 02:03:03час.
Перевод: Любительский (одноголосый, закадровый) Andi + Оригинал
Файл
Качество: BDRip 720p
Формат файла: MKV
Видео кодек: AVC
Аудио кодек: AC3
Видео: 1280x536 (2.35:1); 4728 Kbps; 23,976 fps; 0,287 bpp
Аудио 1: AC3; 192 Kbps; CBR; 2 ch (RUS)
Аудио 2: AC3; 448 Kbps; CBR; 6 ch (ENG)
Субтитры: Русские, Английские

Знаете ли вы, что...

• Фильм снят по мотивам романа Макса Брукса «Мировая война Z» (World War Z: An Oral History of the Zombie War, 2006).
• В начале трейлера, который появился в марте 2013 года, в тот момент, когда семья Брэда Питта завтракает, радио сообщает о рейсе, который приземлился без разрешения, до того как в России объявили военное положение. Это очень похоже на известный по историям о зомби рейс 575, с которого после приземления сошли зараженные пассажиры.
• Эд Харрис и Брайан Крэнстон могли исполнить роли в этом фильме, но покинули проект из-за несогласованности расписания съемок.
• Полиция Венгрии изъяла более 100 единиц оружия со съемочной площадки фильма. Речь идет не о бутафорском сценическом реквизите, а о настоящем боевом оружии. В партии, прибывшей самолетом, было 85 автоматических винтовок, полностью пригодных для применения. Использование настоящего оружия при съемках фильмов — это не редкость, однако в данном случае документы на прибывшую партию не были должным образом оформлены.
• Интерес Голливуда к «Войне миров Z» был столь велик, что студии Питта и ее партнерам из Paramount пришлось участвовать в аукционе, где их главным противником стала команда Леонардо ДиКаприо из студии Appian Way. Оба актера мечтали сразиться с зомби, но у Питта карманы оказались глубже, и в 2007 году Plan B получила права на «Войну».
• Съемки проходили в нескольких районах Великобритании, включая Корнуолл, где снимались сцены в ООН и министерстве обороны. Также съемки проходили в Глазго (Шотландия), где улицы специально сделали выглядящими так, как в Филадельфии, с множеством американских машин, грузовиков, такси. Даже уличные вывески были привезены из США. Часть фильма была отснята в Валлетте, Мальта.
• Первоначально на должность оператора фильма взяли Роберта Ричардсона. Но позже он был заменен Беном Сересином.
• Главный герой летит из Иерусалима на самолете авиакомпании Belarus Airways. Компании именно с таким названием не существует.

MI:

Общее
Уникальный идентификатор : 245641500790158418354264344799964993831 (0xB8CCD50AC55045A8AEA8983133AA9927)
Полное имя : C:UsersDimazDesktopВойна.mkv
Формат : Matroska
Версия формата : Version 4 / Version 2
Размер файла : 4,71 Гбайт
Продолжительность : 2 ч. 3 м.
Общий поток : 5477 Кбит/сек
Название фильма : World War Z 2013 by Torrentirk.ru
Дата кодирования : UTC 2013-09-06 11:07:57
Программа кодирования : mkvmerge v6.3.0 ('You can't stop me!') built on Jul 19 2013 16:27:38
Библиотека кодирования : libebml v1.3.0 + libmatroska v1.4.1
Видео
Идентификатор : 1
Формат : AVC
Формат/Информация : Advanced Video Codec
Профиль формата : [email protected]
Параметр CABAC формата : Да
Параметр ReFrames формата : 12 кадров
Идентификатор кодека : V_MPEG4/ISO/AVC
Продолжительность : 2 ч. 3 м.
Битрейт : 4836 Кбит/сек
Ширина : 1280 пикселей
Высота : 536 пикселей
Соотношение сторон : 2,40:1
Режим частоты кадров : Постоянный
Частота кадров : 23,976 кадра/сек
Цветовое пространство : YUV
Субдискретизация насыщенности : 4:2:0
Битовая глубина : 8 бит
Тип развёртки : Прогрессивная
Бит/(Пиксели*Кадры) : 0.294
Размер потока : 4,06 Гбайт (86%)
Заголовок : World War Z 2013
Библиотека кодирования : x264 core 129 r2245+704+36 8e61944 tMod+MixAQ [[email protected]:2:0 X86_64]
Настройки программы : cabac=1 / ref=12 / deblock=1:-3:-3 / analyse=0x3:0x133 / me=umh / subme=11 / psy=1 / fade_compensate=0.00 / psy_rd=1.05:0.05 / mixed_ref=1 / me_range=32 / chroma_me=1 / trellis=2 / 8x8dct=1 / cqm=0 / deadzone=21,11 / fast_pskip=0 / chroma_qp_offset=-3 / threads=18 / lookahead_threads=3 / sliced_threads=0 / nr=0 / decimate=1 / interlaced=0 / bluray_compat=0 / constrained_intra=0 / fgo=0 / bframes=8 / b_pyramid=2 / b_adapt=2 / b_bias=0 / direct=3 / weightb=1 / open_gop=0 / weightp=2 / keyint=250 / keyint_min=23 / scenecut=40 / intra_refresh=0 / rc_lookahead=50 / rc=2pass / mbtree=1 / bitrate=4836 / ratetol=1.0 / qcomp=0.70 / qpmin=0 / qpmax=69 / qpstep=4 / cplxblur=20.0 / qblur=0.5 / ip_ratio=1.40 / aq=3 / aq-strength=0.90 / aq-sensitivity=10.00 / aq-ifactor=1.00 / aq-pfactor=1.00 / aq-bfactor=1.00 / aq2=0
Язык : English
Default : Да
Forced : Нет
Аудио #1
Идентификатор : 2
Формат : AC-3
Формат/Информация : Audio Coding 3
Расширение режима : CM (complete main)
Параметр Endianness формата : Big
Идентификатор кодека : A_AC3
Продолжительность : 2 ч. 3 м.
Вид битрейта : Постоянный
Битрейт : 192 Кбит/сек
Каналы : 2 канала
Расположение каналов : Front: L R
Частота : 48,0 КГц
Битовая глубина : 16 бит
Метод сжатия : С потерями
Размер потока : 169 Мбайт (4%)
Заголовок : VO
Язык : Russian
Default : Да
Forced : Да
Аудио #2
Идентификатор : 3
Формат : AC-3
Формат/Информация : Audio Coding 3
Расширение режима : CM (complete main)
Параметр Endianness формата : Big
Идентификатор кодека : A_AC3
Продолжительность : 2 ч. 3 м.
Вид битрейта : Постоянный
Битрейт : 448 Кбит/сек
Каналы : 6 каналов
Расположение каналов : Front: L C R, Side: L R, LFE
Частота : 48,0 КГц
Битовая глубина : 16 бит
Метод сжатия : С потерями
Размер потока : 394 Мбайт (8%)
Заголовок : Original
Язык : English
Default : Нет
Forced : Нет
Текст #1
Идентификатор : 4
Формат : UTF-8
Идентификатор кодека : S_TEXT/UTF8
Идентификатор кодека/Информация : UTF-8 Plain Text
Язык : Russian
Default : Нет
Forced : Нет
Текст #2
Идентификатор : 5
Формат : UTF-8
Идентификатор кодека : S_TEXT/UTF8
Идентификатор кодека/Информация : UTF-8 Plain Text
Язык : English
Default : Нет
Forced : Нет
Меню
00:00:00.000 : en:00:00:00.000
00:05:05.180 : en:00:05:05.180
00:13:54.000 : en:00:13:54.000
00:22:43.195 : en:00:22:43.195
00:29:46.034 : en:00:29:46.034
00:35:21.494 : en:00:35:21.494
00:42:23.458 : en:00:42:23.458
00:52:37.946 : en:00:52:37.946
00:58:53.822 : en:00:58:53.822
01:07:18.868 : en:01:07:18.868
01:15:11.757 : en:01:15:11.757
01:24:02.037 : en:01:24:02.037
01:29:08.802 : en:01:29:08.802
01:34:50.518 : en:01:34:50.518
01:43:45.469 : en:01:43:45.469
01:52:17.981 : en:01:52:17.981
01:55:51.653 : en:01:55:51.653

Скриншоты:




[Цитировать]

Топик был перенесен из форума Новинки кинопроката (HD Video) в форум Зарубежное кино (HD Video)
Bootch



Показать сообщения:    

Текущее время: 05-Дек 23:40

Часовой пояс: UTC + 3


Вы не можете начинать темы
Вы не можете отвечать на сообщения
Вы не можете редактировать свои сообщения
Вы не можете удалять свои сообщения
Вы не можете голосовать в опросах
Вы не можете прикреплять файлы к сообщениям
Вы не можете скачивать файлы

!ВНИМАНИЕ!
Сайт не предоставляет электронные версии произведений, а занимается лишь коллекционированием и каталогизацией ссылок, присылаемых и публикуемых на форуме нашими читателями. Если вы являетесь правообладателем какого-либо представленного материала и не желаете, чтобы ссылка на него находилась в нашем каталоге, свяжитесь с нами, и мы незамедлительно удалим ее. Файлы для обмена на трекере предоставлены пользователями сайта, и администрация не несет ответственности за их содержание. Просьба не заливать файлы, защищенные авторскими правами, а также файлы нелегального содержания!