[ Сегодня идет свободное скачивание без начисления Download ]


Статистика раздачи
Нет
 
   
 
Top  
 
 
Нокаут / Haywire«Ей не оставили выбора» Информация о фильме
Название: [sh]Нокаут[/sh]
Оригинальное название: [sh]Haywire[/sh]
Год выхода: 2011
Жанр: боевик, триллер
Режиссер: Стивен Содерберг
В ролях: Джина Карано, Юэн МакГрегор, Майкл Дуглас, Антонио Бандерас, Ченнинг Татум, Матьё Кассовиц, Майкл Фассбендер, Майкл Ангарано, Билл Пэкстон, Дебби Линн Росс
О фильме:
Мэллори Кейн — секретный спецагент. Она молода, умна и красива. Время от времени шеф международной спецслужбы Кеннет вызывает ее для выполнения заданий, не всегда санкционированных правительством. Но после провала череды операций Мэллори осознает, что она пешка в двойной игре. Теперь ей нужно использовать весь свой талант и опыт, чтобы скрыться от международного розыска, защитить свою семью и отомстить за предательство…

Рейтинг PG-13 — Детям до 13 лет просмотр не желателен
Ограничение по возрасту: 16+
Страна: США, Ирландия
Студия: Irish Film Board, Relativity Media
Продолжительность: 01:32:52
Перевод: Профессиональный (полное дублирование) + оригинал
бюджет: $23 000 000
сборы в США: $18 942 396
сборы в мире: + $14 430 210 = $33 372 606 сборы
сборы в России: $2 053 554
Файл
Кодек: AVC
Качество: BDRip 1080p
Видео: 1920x798 (2.40:1); 10464 Kbps; 23,976 fps; 0,285 bpp
Аудио №1: Russian: AC3; 384 Kbps; CBR; 6 ch
Аудио №2: English: AC3; 384 Kbps; CBR; 6 ch
Субтитры: Русские, английские

MI:

Общее
Уникальный идентификатор : 245365867663367126096847140744903456420 (0xB897BF479AAD25069CCD5F16A5FAF6A4)
Полное имя : C:UsersDimazDesktopHaywire.2012.BDRip.1080p.mkv
Формат : Matroska
Версия формата : Version 4 / Version 2
Размер файла : 7,43 Гбайт
Продолжительность : 1 ч. 32 м.
Общий поток : 11,5 Мбит/сек
Название фильма : Haywire 2011 by Torrentirk.ru
Дата кодирования : UTC 2013-09-07 02:03:04
Программа кодирования : mkvmerge v6.3.0 ('You can't stop me!') built on Jul 19 2013 16:27:38
Библиотека кодирования : libebml v1.3.0 + libmatroska v1.4.1
Видео
Идентификатор : 1
Формат : AVC
Формат/Информация : Advanced Video Codec
Профиль формата : High@L4.1
Параметр CABAC формата : Да
Параметр ReFrames формата : 5 кадров
Идентификатор кодека : V_MPEG4/ISO/AVC
Продолжительность : 1 ч. 32 м.
Битрейт : 10,7 Мбит/сек
Ширина : 1920 пикселей
Высота : 798 пикселей
Соотношение сторон : 2,40:1
Режим частоты кадров : Постоянный
Частота кадров : 23,976 кадра/сек
Цветовое пространство : YUV
Субдискретизация насыщенности : 4:2:0
Битовая глубина : 8 бит
Тип развёртки : Прогрессивная
Бит/(Пиксели*Кадры) : 0.291
Размер потока : 6,79 Гбайт (91%)
Заголовок : Haywire 2011
Библиотека кодирования : x264 core 120 r2146 bcd41db
Настройки программы : cabac=1 / ref=5 / deblock=1:-3:-3 / analyse=0x3:0x113 / me=umh / subme=10 / psy=1 / psy_rd=1.00:0.05 / mixed_ref=1 / me_range=32 / chroma_me=1 / trellis=2 / 8x8dct=1 / cqm=0 / deadzone=21,11 / fast_pskip=0 / chroma_qp_offset=-2 / threads=8 / sliced_threads=0 / nr=0 / decimate=1 / interlaced=0 / bluray_compat=0 / constrained_intra=0 / bframes=5 / b_pyramid=2 / b_adapt=2 / b_bias=0 / direct=3 / weightb=1 / open_gop=0 / weightp=2 / keyint=250 / keyint_min=23 / scenecut=40 / intra_refresh=0 / rc=2pass / mbtree=0 / bitrate=10700 / ratetol=1.0 / qcomp=0.70 / qpmin=0 / qpmax=69 / qpstep=4 / cplxblur=20.0 / qblur=0.5 / ip_ratio=1.40 / pb_ratio=1.30 / aq=2:1.00
Язык : English
Default : Нет
Forced : Нет
Аудио #1
Идентификатор : 2
Формат : AC-3
Формат/Информация : Audio Coding 3
Расширение режима : CM (complete main)
Параметр Endianness формата : Big
Идентификатор кодека : A_AC3
Продолжительность : 1 ч. 32 м.
Вид битрейта : Постоянный
Битрейт : 384 Кбит/сек
Каналы : 6 каналов
Расположение каналов : Front: L C R, Side: L R, LFE
Частота : 48,0 КГц
Битовая глубина : 16 бит
Метод сжатия : С потерями
Размер потока : 255 Мбайт (3%)
Заголовок : Rus
Default : Да
Forced : Нет
Аудио #2
Идентификатор : 3
Формат : AC-3
Формат/Информация : Audio Coding 3
Расширение режима : CM (complete main)
Параметр Endianness формата : Big
Идентификатор кодека : A_AC3
Продолжительность : 1 ч. 32 м.
Вид битрейта : Постоянный
Битрейт : 384 Кбит/сек
Каналы : 6 каналов
Расположение каналов : Front: L C R, Side: L R, LFE
Частота : 48,0 КГц
Битовая глубина : 16 бит
Метод сжатия : С потерями
Размер потока : 255 Мбайт (3%)
Заголовок : Eng
Default : Нет
Forced : Нет
Текст #1
Идентификатор : 4
Формат : UTF-8
Идентификатор кодека : S_TEXT/UTF8
Идентификатор кодека/Информация : UTF-8 Plain Text
Заголовок : Rus Sub
Язык : Russian
Default : Нет
Forced : Нет
Текст #2
Идентификатор : 5
Формат : UTF-8
Идентификатор кодека : S_TEXT/UTF8
Идентификатор кодека/Информация : UTF-8 Plain Text
Заголовок : Eng Sub
Язык : English
Default : Нет
Forced : Нет
Меню
00:00:00.000 : en:00:00:00.000
00:07:14.684 : en:00:07:14.684
00:12:07.477 : en:00:12:07.477
00:20:05.538 : en:00:20:05.538
00:24:06.737 : en:00:24:06.737
00:30:00.173 : en:00:30:00.173
00:38:16.878 : en:00:38:16.878
00:43:34.278 : en:00:43:34.278
00:47:58.751 : en:00:47:58.751
00:54:29.308 : en:00:54:29.308
00:58:55.490 : en:00:58:55.490
01:05:55.285 : en:01:05:55.285
01:10:12.708 : en:01:10:12.708
01:16:10.649 : en:01:16:10.649
01:21:51.448 : en:01:21:51.448
01:25:16.028 : en:01:25:16.028

Скриншоты:




[Цитировать]



Показать сообщения:    

Текущее время: 07-Дек 13:36

Часовой пояс: UTC + 3


Вы не можете начинать темы
Вы не можете отвечать на сообщения
Вы не можете редактировать свои сообщения
Вы не можете удалять свои сообщения
Вы не можете голосовать в опросах
Вы не можете прикреплять файлы к сообщениям
Вы не можете скачивать файлы

!ВНИМАНИЕ!
Сайт не предоставляет электронные версии произведений, а занимается лишь коллекционированием и каталогизацией ссылок, присылаемых и публикуемых на форуме нашими читателями. Если вы являетесь правообладателем какого-либо представленного материала и не желаете, чтобы ссылка на него находилась в нашем каталоге, свяжитесь с нами, и мы незамедлительно удалим ее. Файлы для обмена на трекере предоставлены пользователями сайта, и администрация не несет ответственности за их содержание. Просьба не заливать файлы, защищенные авторскими правами, а также файлы нелегального содержания!