[ Сегодня идет свободное скачивание без начисления Download ]


Статистика раздачи
Нет
 
   
 
Top  
 
 
«Вторжение с тёмной стороны Луны!» Информация о фильме
Название: Железное небо
Оригинальное название: Iron Sky
Год выхода: 2012
Жанр: фантастика, боевик, комедия
Режиссер: Тимо Вуоренсола
В ролях: Юлия Дитце, Пета Сержант, Удо Кир, Ким Джексон, Стефани Пол, Гёц Отто, Кристофер Кирби, Моника Госсманн, Джим Нобелок, Юки Ивамото-О фильме:
70 лет назад недобитые нацисты улетели на Луну. Теперь, когда их гигантский флот возмездия почти достроен, они решили устроить Земле новый блицкриг. Тем временем президент США готова на всё, чтобы пойти на второй срок — даже развязать в космосе войну за природные ресурсы; а тщеславный офицер Четвертого Рейха Клаус задумал предать фюрера и получить власть над Землёй в свои руки. Боевые цеппелины уже вышли на орбиту, земные города под прицелом. Похоже, мира хотят только двое: наивная учительница с Луны Ренате и бывший астронавт Джеймс Вашингтон.-
Рейтинг RЛицам до 17 лет обязательно присутствие взрослого
Ограничение по возрасту: 16+-бюджет: €7 500 000
сборы в США: $122 082
сборы в мире: + $8 012 949 = $8 135 031 сборы
сборы в России: $449 982-Страна: Финляндия, Германия, Австралия
Студия: 27 Films Production, Blind Spot Pictures Oy, New Holland Pictures, Tuotantoyhti? Energia, Yleisradio (YLE)
Продолжительность: 01:32:40
Перевод: Профессиональный (полное дублирование) + вставки DVO на немецкую речь, Профессиональный (двухголосый, закадровый) Кубик в кубе, оригинал
Файл
Качество: BDRip 1080p
Кодек: AVC
Видео: 1920x804 (2.35:1); 8704 Kbps; 24 fps; 0,235 bpp
Аудио №1: Russian; AC3; 448 Kbps; CBR; 6 ch | DUB
Аудио №2: Russian; AC3; 448 Kbps; CBR; 6 ch | DVO
Аудио №3: English; AC3; 448 Kbps; CBR; 6 ch
Субтитры: Русские, английские

Знаете ли вы, что...

• Названия типов нацистских космолётов — «Золото Рейна», «Сумерки богов», «Валькирия» и «Зигфрид» — взяты из названий опер Рихарда Вагнера из цикла «Кольцо нибелунга»; музыка Laibach для фильма тоже основана на темах из вагнеровских опер.-• Для съёмки кадра, где нацистский автомат ведёт автоматический огонь крупным планом, переднюю часть немецкого «шмайсера» приварили к настоящему автомату Калашникова, чтобы исключить неполадки.-• Сцена «разноса» в предвыборном штабе президента США кадр в кадр копирует известный вирусный ролик-мем «Гитлер узнает о…», где на сцену из фильма «Бункер» накладываются комичные субтитры.-• Сторонники фильма в интернете внесли в бюджет $1 500 000 на правах инвесторов.-• Работая вне голливудской системы, создатели реализовали 800 кадров с компьютерной графикой, одобренной The Hollywood Reporter, за $1,2 млн. (для сравнения, бюджет компьютерных спецэффектов для «Трансформеров» приближается к $50 млн.).-• Президент США (по хронологии фильма — преемница Обамы) — очевидная пародия на республиканку Сару Пэйлин, бывшего губернатора Аляски, известную своими шокирующими заявлениями и слабой географической подкованностью.

MI:

Общее
Уникальный идентификатор : 218026511910536743206451034391194788714 (0xA40660F8C44DC476B3014680F97E636A)
Полное имя : C:UsersDimazDesktopIron.Sky.2012.BDRip.1080p.mkv
Формат : Matroska
Версия формата : Version 4 / Version 2
Размер файла : 6,64 Гбайт
Продолжительность : 1 ч. 32 м.
Общий поток : 10,3 Мбит/сек
Название фильма : Iron Sky 2012 by Torrentirk.ru
Дата кодирования : UTC 2013-09-07 07:00:22
Программа кодирования : mkvmerge v6.3.0 ('You can't stop me!') built on Jul 19 2013 16:27:38
Библиотека кодирования : libebml v1.3.0 + libmatroska v1.4.1
Видео
Идентификатор : 1
Формат : AVC
Формат/Информация : Advanced Video Codec
Профиль формата : High@L4.1
Параметр CABAC формата : Да
Параметр ReFrames формата : 5 кадров
Идентификатор кодека : V_MPEG4/ISO/AVC
Продолжительность : 1 ч. 32 м.
Битрейт : 8705 Кбит/сек
Ширина : 1920 пикселей
Высота : 804 пикселя
Соотношение сторон : 2,40:1
Режим частоты кадров : Постоянный
Частота кадров : 24,000 кадра/сек
Цветовое пространство : YUV
Субдискретизация насыщенности : 4:2:0
Битовая глубина : 8 бит
Тип развёртки : Прогрессивная
Бит/(Пиксели*Кадры) : 0.235
Размер потока : 5,64 Гбайт (85%)
Заголовок : Iron Sky 2012
Библиотека кодирования : x264 core 125 r2208kMod d9d2288
Настройки программы : cabac=1 / ref=5 / deblock=1:-2:-2 / analyse=0x3:0x113 / me=umh / subme=11 / psy=1 / fade_compensate=0.00 / psy_rd=1.00:0.05 / mixed_ref=1 / me_range=48 / chroma_me=1 / trellis=2 / 8x8dct=1 / cqm=0 / deadzone=21,11 / fast_pskip=1 / chroma_qp_offset=-3 / threads=12 / lookahead_threads=2 / sliced_threads=0 / nr=0 / decimate=1 / interlaced=0 / bluray_compat=0 / constrained_intra=0 / bframes=10 / b_pyramid=2 / b_adapt=2 / b_bias=0 / direct=1 / weightb=1 / open_gop=0 / weightp=2 / keyint=250 / keyint_min=24 / scenecut=40 / intra_refresh=0 / rc_lookahead=40 / rc=crf / mbtree=0 / crf=16.0000 / qcomp=0.60 / qpmin=0 / qpmax=69 / qpstep=4 / vbv_maxrate=50000 / vbv_bufsize=62500 / crf_max=0.0 / nal_hrd=none / ip_ratio=1.40 / pb_ratio=1.30 / aq=2:1.00
Язык : English
Default : Да
Forced : Нет
Коэффициенты матрицы : BT.709
Аудио #1
Идентификатор : 2
Формат : AC-3
Формат/Информация : Audio Coding 3
Расширение режима : CM (complete main)
Параметр Endianness формата : Big
Идентификатор кодека : A_AC3
Продолжительность : 1 ч. 32 м.
Вид битрейта : Постоянный
Битрейт : 448 Кбит/сек
Каналы : 6 каналов
Расположение каналов : Front: L C R, Side: L R, LFE
Частота : 48,0 КГц
Битовая глубина : 16 бит
Метод сжатия : С потерями
Размер потока : 297 Мбайт (4%)
Заголовок : Dub
Язык : Russian
Default : Да
Forced : Нет
Аудио #2
Идентификатор : 3
Формат : AC-3
Формат/Информация : Audio Coding 3
Расширение режима : CM (complete main)
Параметр Endianness формата : Big
Идентификатор кодека : A_AC3
Продолжительность : 1 ч. 32 м.
Вид битрейта : Постоянный
Битрейт : 448 Кбит/сек
Каналы : 6 каналов
Расположение каналов : Front: L C R, Side: L R, LFE
Частота : 48,0 КГц
Битовая глубина : 16 бит
Метод сжатия : С потерями
Размер потока : 297 Мбайт (4%)
Заголовок : DVO
Язык : Russian
Default : Нет
Forced : Нет
Аудио #3
Идентификатор : 4
Формат : AC-3
Формат/Информация : Audio Coding 3
Расширение режима : CM (complete main)
Параметр Endianness формата : Big
Идентификатор кодека : A_AC3
Продолжительность : 1 ч. 32 м.
Вид битрейта : Постоянный
Битрейт : 448 Кбит/сек
Каналы : 6 каналов
Расположение каналов : Front: L C R, Side: L R, LFE
Частота : 48,0 КГц
Битовая глубина : 16 бит
Метод сжатия : С потерями
Размер потока : 297 Мбайт (4%)
Заголовок : Original
Язык : English
Default : Нет
Forced : Нет
Текст #1
Идентификатор : 5
Формат : UTF-8
Идентификатор кодека : S_TEXT/UTF8
Идентификатор кодека/Информация : UTF-8 Plain Text
Язык : Russian
Default : Нет
Forced : Нет
Текст #2
Идентификатор : 6
Формат : UTF-8
Идентификатор кодека : S_TEXT/UTF8
Идентификатор кодека/Информация : UTF-8 Plain Text
Язык : English
Default : Нет
Forced : Нет
Меню
00:00:00.000 : en:Chapter 1
00:11:29.333 : en:Chapter 2
00:22:55.917 : en:Chapter 3
00:31:25.000 : en:Chapter 4
00:44:16.292 : en:Chapter 5
00:53:26.500 : en:Chapter 6
01:05:19.083 : en:Chapter 7
01:13:26.625 : en:Chapter 8
01:17:43.958 : en:Chapter 9
01:24:35.333 : en:Chapter 10

Скриншоты:




[Цитировать]



Показать сообщения:    

Текущее время: 07-Дек 11:42

Часовой пояс: UTC + 3


Вы не можете начинать темы
Вы не можете отвечать на сообщения
Вы не можете редактировать свои сообщения
Вы не можете удалять свои сообщения
Вы не можете голосовать в опросах
Вы не можете прикреплять файлы к сообщениям
Вы не можете скачивать файлы

!ВНИМАНИЕ!
Сайт не предоставляет электронные версии произведений, а занимается лишь коллекционированием и каталогизацией ссылок, присылаемых и публикуемых на форуме нашими читателями. Если вы являетесь правообладателем какого-либо представленного материала и не желаете, чтобы ссылка на него находилась в нашем каталоге, свяжитесь с нами, и мы незамедлительно удалим ее. Файлы для обмена на трекере предоставлены пользователями сайта, и администрация не несет ответственности за их содержание. Просьба не заливать файлы, защищенные авторскими правами, а также файлы нелегального содержания!