[ Сегодня идет свободное скачивание без начисления Download ]


Статистика раздачи
Нет
 
   
 
Top  
 
 

Информация о фильме
Название: [sh]Лучшее предложение[/sh]
Оригинальное название: [sh]La migliore offerta [/sh]
Год выпуска: 2013
Жанр: Триллер, драма
Выпущено: США, Италия | Paco Cinematografica, Warner Bros., Business Location Sudtirol Alto Adige
Режиссер: Джузеппе Торнаторе
В ролях: Джим Стёрджесс, Дональд Сазерленд, Джеффри Раш, Сильвия Хукс, Филип Джексон, Лия Кебеде, Дермот Краули, Кируна Стамелл, Майлз Ричардсон, Линн Суонсон
О фильме: Вергилий Олдман, управляющий директор ведущего аукционного дома. В секретном зале своей виллы, он собрал сотни бесценных картин из разных эпох. Однажды таинственная женщина, скрывающая свою личность, просит продать его антиквариат ее семьи. Но Олдман заинтересован не только предметами старины, его все больше очаровывает сама женщина…

премьера (мир) 1 января 2013
премьера (РФ) 1 августа 2013, «Каскад»
релиз на Blu-Ray 9 сентября 2013, «Новый Диск»
релиз на DVD 9 сентября 2013, «Новый Диск»

Файл
Качество: BDRip 720p
Видео: MPEG-4 AVC, 4821 Кбит/с, 1280x536
Аудио: Английский (DTS, 6 ch, 1510 Кбит/с), русский (AC3, 6 ch, 448 Кбит/с)
Размер: 7.64 ГБ
Продолжительность: 02:09:32
Перевод: Дублированный [лицензия]
Субтитры: Русские / UTF8

MI

Общее
Уникальный идентификатор : 193402956575112676627160300466732084887 (0x91800DF6571850B1903DE13E39512E97)
Полное имя : C:1La.migliore.offerta.2013.720p.BluRay.Rus.Eng.mkv
Формат : Matroska
Версия формата : Version 2
Размер файла : 7,64 Гбайт
Продолжительность : 2 ч. 9 м.
Общий поток : 8446 Кбит/сек
Название фильма : HDCLUB present "La migliore offerta (2013)"
Дата кодирования : UTC 2013-09-07 06:25:44
Программа кодирования : mkvmerge v6.3.0 ('You can't stop me!') built on Jun 28 2013 20:09:41
Библиотека кодирования : libebml v1.3.0 + libmatroska v1.4.0
Видео
Идентификатор : 1
Формат : AVC
Формат/Информация : Advanced Video Codec
Профиль формата : [email protected]
Параметр CABAC формата : Да
Параметр ReFrames формата : 12 кадров
Идентификатор кодека : V_MPEG4/ISO/AVC
Продолжительность : 2 ч. 9 м.
Битрейт : 4812 Кбит/сек
Ширина : 1280 пикселей
Высота : 536 пикселей
Соотношение сторон : 2,40:1
Режим частоты кадров : Постоянный
Частота кадров : 24,000 кадра/сек
Цветовое пространство : YUV
Субдискретизация насыщенности : 4:2:0
Битовая глубина : 8 бит
Тип развёртки : Прогрессивная
Бит/(Пиксели*Кадры) : 0.292
Размер потока : 4,35 Гбайт (57%)
Заголовок : La.migliore.offerta.2013.720p.BluRay.Rus.Eng.HDCLUB
Библиотека кодирования : x264 core 138 r2359+704+48 3f879a0 tMod [[email protected] X86_64]
Настройки программы : cabac=1 / ref=12 / deblock=1:-3:-3 / analyse=0x3:0x133 / me=umh / subme=11 / psy=1 / fade_compensate=0.00 / psy_rd=1.00:0.00 / mixed_ref=1 / me_range=32 / chroma_me=1 / trellis=2 / 8x8dct=1 / cqm=0 / deadzone=21,11 / fast_pskip=0 / chroma_qp_offset=-2 / threads=12 / lookahead_threads=2 / sliced_threads=0 / nr=0 / decimate=1 / interlaced=0 / bluray_compat=0 / constrained_intra=0 / fgo=0 / bframes=8 / b_pyramid=2 / b_adapt=2 / b_bias=0 / direct=1 / weightb=1 / open_gop=0 / weightp=2 / keyint=240 / keyint_min=24 / scenecut=40 / intra_refresh=0 / rc_lookahead=60 / rc=crf / mbtree=0 / crf=14.5000 / qcomp=0.60 / qpmin=0:0:0 / qpmax=69:69:69 / qpstep=4 / vbv_maxrate=50000 / vbv_bufsize=62500 / crf_max=0.0 / nal_hrd=none / ip_ratio=1.30 / pb_ratio=1.25 / aq=1:0.80 / aq-sensitivity=10.00 / aq-factor=1.00:1.00:1.00 / aq2=0 / aq3=0
Язык : English
Default : Да
Forced : Нет
Аудио #1
Идентификатор : 2
Формат : DTS
Формат/Информация : Digital Theater Systems
Режим : 16
Параметр Endianness формата : Big
Идентификатор кодека : A_DTS
Продолжительность : 2 ч. 9 м.
Вид битрейта : Постоянный
Битрейт : 1509 Кбит/сек
Каналы : 6 каналов
Расположение каналов : Front: L C R, Side: L R, LFE
Частота : 48,0 КГц
Битовая глубина : 24 бит
Метод сжатия : С потерями
Размер потока : 1,37 Гбайт (18%)
Заголовок : DTS 5.1 @ 1509 kbps - Dubbed [BD RUS]
Язык : Russian
Default : Да
Forced : Нет
Аудио #2
Идентификатор : 3
Формат : AC-3
Формат/Информация : Audio Coding 3
Расширение режима : CM (complete main)
Параметр Endianness формата : Big
Идентификатор кодека : A_AC3
Продолжительность : 2 ч. 9 м.
Вид битрейта : Постоянный
Битрейт : 448 Кбит/сек
Каналы : 6 каналов
Расположение каналов : Front: L C R, Side: L R, LFE
Частота : 48,0 КГц
Битовая глубина : 16 бит
Метод сжатия : С потерями
Размер потока : 415 Мбайт (5%)
Язык : Russian
Default : Нет
Forced : Нет
Аудио #3
Идентификатор : 4
Формат : DTS
Формат/Информация : Digital Theater Systems
Режим : 16
Параметр Endianness формата : Big
Идентификатор кодека : A_DTS
Продолжительность : 2 ч. 9 м.
Вид битрейта : Постоянный
Битрейт : 1509 Кбит/сек
Каналы : 6 каналов
Расположение каналов : Front: L C R, Side: L R, LFE
Частота : 48,0 КГц
Битовая глубина : 24 бит
Метод сжатия : С потерями
Размер потока : 1,37 Гбайт (18%)
Заголовок : DTS 5.1 @ 1509 kbps
Язык : English
Default : Нет
Forced : Нет
Текст
Идентификатор : 5
Формат : UTF-8
Идентификатор кодека : S_TEXT/UTF8
Идентификатор кодека/Информация : UTF-8 Plain Text
Язык : Russian
Default : Нет
Forced : Нет
Меню
00:00:00.000 : ru:Chapter 1
00:00:25.750 : ru:Chapter 2
00:09:46.208 : ru:Chapter 3
00:20:07.250 : ru:Chapter 4
00:38:36.458 : ru:Chapter 5
00:51:22.541 : ru:Chapter 6
01:16:23.583 : ru:Chapter 7
01:34:46.583 : ru:Chapter 8
01:53:21.666 : ru:Chapter 9

Скриншоты



[Цитировать]

Топик был перенесен из форума Новинки кинопроката (HD Video) в форум Зарубежное кино (HD Video)
Bootch



Показать сообщения:    

Текущее время: 04-Дек 13:17

Часовой пояс: UTC + 3


Вы не можете начинать темы
Вы не можете отвечать на сообщения
Вы не можете редактировать свои сообщения
Вы не можете удалять свои сообщения
Вы не можете голосовать в опросах
Вы не можете прикреплять файлы к сообщениям
Вы не можете скачивать файлы

!ВНИМАНИЕ!
Сайт не предоставляет электронные версии произведений, а занимается лишь коллекционированием и каталогизацией ссылок, присылаемых и публикуемых на форуме нашими читателями. Если вы являетесь правообладателем какого-либо представленного материала и не желаете, чтобы ссылка на него находилась в нашем каталоге, свяжитесь с нами, и мы незамедлительно удалим ее. Файлы для обмена на трекере предоставлены пользователями сайта, и администрация не несет ответственности за их содержание. Просьба не заливать файлы, защищенные авторскими правами, а также файлы нелегального содержания!