[ Сегодня идет свободное скачивание без начисления Download ]


Статистика раздачи
Нет
 
   
 
Top  
 
 

Информация о фильме
Название: Коммандос
Оригинальное название: Commando
Год выхода: 1985
Жанр: боевик, приключения
Режиссер: Марк Л. Лестер
В ролях: Арнольд Шварценеггер, Рей Дон Чонг, Дэн Хедайя, Вернон Уэллс, Джеймс Олсон, Дэвид Патрик Келли, Алисса Милано, Билл Дьюк, Дрю Снайдер, Шарон Виатт
О фильме:
Полковник в отставке Джон Матрикс - бывший командир спецотряда, участвовавшего в секретных операциях на Ближнем Востоке, СССР и Центральной Америке. Находясь в отличной физической форме и владея знаниями, которые делают его супер-солдатом, полковник в отставке Джон Матрикс живет под другим именем в большом доме со своей дочерью вдали от города.
Но спокойную жизнь нарушает его старый враг, похищая 11-ти летнюю дочь полковника. И вспыхнувший ненавистью Джон Матрикс безжалостно убивает всех, кто становится у него на пути к спасению любимой дочери...

Выпущено: США
Студия: Silver Pictures
Продолжительность: 01:30:16
Перевод: Профессиональный многоголосый закадровый + Оригинал
Файл
Кодек: x264
Качество: BDRip 1080p(источник: BD-Remux)
Видео: 1916x1040 (1,85:1), 23.976 fps, 11,5 Mbps
Аудио #1: AC-3, 2 ch, 192 kbps (Rus) R5
Аудио #2: AC-3, 6 ch, 640 kbps (Eng) Оригинал
Субтитры: Русские (R5), Русские (Дмитрий «Гоблин» Пучков), Английские
Скачать: семпл

Скриншоты

MI

Общее
Уникальный идентификатор : 207489186131662381834587836556792286942 (0x9C18F6B32055A9EB904C2CE5177FCEDE)
Полное имя : E:Commando.1985.BDRip.1080p.Rus.Eng.mkv
Формат : Matroska
Версия формата : Version 2
Размер файла : 7,76 Гбайт
Продолжительность : 1 ч. 30 м.
Общий поток : 12,3 Мбит/сек
Название фильма : Коммандос / Commando (1985)
Дата кодирования : UTC 2013-09-07 16:24:14
Программа кодирования : mkvmerge v5.8.0 ('No Sleep / Pillow') built on Sep 2 2012 15:37:04
Библиотека кодирования : libebml v1.2.3 + libmatroska v1.3.0
Видео
Идентификатор : 1
Формат : AVC
Формат/Информация : Advanced Video Codec
Профиль формата : [email protected]
Параметр CABAC формата : Да
Параметр ReFrames формата : 4 кадра
Идентификатор кодека : V_MPEG4/ISO/AVC
Продолжительность : 1 ч. 30 м.
Битрейт : 11,5 Мбит/сек
Ширина : 1916 пикселей
Высота : 1040 пикселей
Соотношение сторон : 1,85:1
Режим частоты кадров : Постоянный
Частота кадров : 23,976 кадра/сек
Цветовое пространство : YUV
Субдискретизация насыщенности : 4:2:0
Битовая глубина : 8 бит
Тип развёртки : Прогрессивная
Бит/(Пиксели*Кадры) : 0.240
Размер потока : 7,08 Гбайт (91%)
Заголовок : Release by N1NT3NDO
Библиотека кодирования : x264 core 138 r2358 9e941d1
Настройки программы : cabac=1 / ref=4 / deblock=1:-3:-3 / analyse=0x3:0x133 / me=umh / subme=11 / psy=1 / psy_rd=1.00:0.00 / mixed_ref=1 / me_range=32 / chroma_me=1 / trellis=2 / 8x8dct=1 / cqm=0 / deadzone=21,11 / fast_pskip=0 / chroma_qp_offset=-2 / threads=12 / lookahead_threads=1 / sliced_threads=0 / nr=0 / decimate=0 / interlaced=0 / bluray_compat=0 / constrained_intra=0 / bframes=6 / b_pyramid=2 / b_adapt=2 / b_bias=0 / direct=3 / weightb=1 / open_gop=0 / weightp=2 / keyint=240 / keyint_min=23 / scenecut=40 / intra_refresh=0 / rc_lookahead=80 / rc=2pass / mbtree=0 / bitrate=11475 / ratetol=1.0 / qcomp=0.60 / qpmin=0 / qpmax=69 / qpstep=4 / cplxblur=20.0 / qblur=0.5 / vbv_maxrate=50000 / vbv_bufsize=62500 / nal_hrd=none / ip_ratio=1.40 / pb_ratio=1.30 / aq=1:0.70
Язык : English
Default : Да
Forced : Нет
Аудио #1
Идентификатор : 2
Формат : AC-3
Формат/Информация : Audio Coding 3
Расширение режима : CM (complete main)
Параметр Endianness формата : Big
Идентификатор кодека : A_AC3
Продолжительность : 1 ч. 30 м.
Вид битрейта : Постоянный
Битрейт : 192 Кбит/сек
Каналы : 2 канала
Расположение каналов : Front: L R
Частота : 48,0 КГц
Битовая глубина : 16 бит
Метод сжатия : С потерями
Размер потока : 124 Мбайт (2%)
Заголовок : Rus (R5)
Язык : Russian
Default : Да
Forced : Нет
Аудио #2
Идентификатор : 3
Формат : AC-3
Формат/Информация : Audio Coding 3
Расширение режима : CM (complete main)
Параметр Endianness формата : Big
Идентификатор кодека : A_AC3
Продолжительность : 1 ч. 30 м.
Вид битрейта : Постоянный
Битрейт : 640 Кбит/сек
Каналы : 6 каналов
Расположение каналов : Front: L C R, Side: L R, LFE
Частота : 48,0 КГц
Битовая глубина : 16 бит
Метод сжатия : С потерями
Размер потока : 413 Мбайт (5%)
Заголовок : Eng
Язык : English
Default : Нет
Forced : Нет
Текст #1
Идентификатор : 4
Формат : UTF-8
Идентификатор кодека : S_TEXT/UTF8
Идентификатор кодека/Информация : UTF-8 Plain Text
Заголовок : Rus (R5)
Язык : Russian
Default : Нет
Forced : Нет
Текст #2
Идентификатор : 5
Формат : UTF-8
Идентификатор кодека : S_TEXT/UTF8
Идентификатор кодека/Информация : UTF-8 Plain Text
Заголовок : Rus (Дмитрий «Гоблин» Пучков)
Язык : Russian
Default : Нет
Forced : Нет
Текст #3
Идентификатор : 6
Формат : UTF-8
Идентификатор кодека : S_TEXT/UTF8
Идентификатор кодека/Информация : UTF-8 Plain Text
Заголовок : Eng
Язык : English
Default : Нет
Forced : Нет
Меню
00:00:00.000 : :Chapter 01
00:04:14.836 : :Chapter 02
00:08:16.076 : :Chapter 03
00:11:26.349 : :Chapter 04
00:16:35.701 : :Chapter 05
00:19:16.778 : :Chapter 06
00:22:46.948 : :Chapter 07
00:26:42.266 : :Chapter 08
00:29:03.239 : :Chapter 09
00:32:14.766 : :Chapter 10
00:37:39.797 : :Chapter 11
00:43:59.219 : :Chapter 12
00:49:14.992 : :Chapter 13
00:53:45.889 : :Chapter 14
00:56:32.347 : :Chapter 15
00:59:14.509 : :Chapter 16
01:04:45.380 : :Chapter 17
01:06:58.555 : :Chapter 18
01:10:21.966 : :Chapter 19
01:12:52.618 : :Chapter 20
01:17:48.246 : :Chapter 21
01:19:48.198 : :Chapter 22
01:24:37.363 : :Chapter 23
01:26:55.292 : :Chapter 24

x264

x264 [info]: frame I:930 Avg QP:19.92 size:148685
x264 [info]: frame P:29818 Avg QP:20.91 size: 94449
x264 [info]: frame B:99102 Avg QP:22.91 size: 47761

[Цитировать]



Показать сообщения:    

Текущее время: 04-Дек 19:23

Часовой пояс: UTC + 3


Вы не можете начинать темы
Вы не можете отвечать на сообщения
Вы не можете редактировать свои сообщения
Вы не можете удалять свои сообщения
Вы не можете голосовать в опросах
Вы не можете прикреплять файлы к сообщениям
Вы не можете скачивать файлы

!ВНИМАНИЕ!
Сайт не предоставляет электронные версии произведений, а занимается лишь коллекционированием и каталогизацией ссылок, присылаемых и публикуемых на форуме нашими читателями. Если вы являетесь правообладателем какого-либо представленного материала и не желаете, чтобы ссылка на него находилась в нашем каталоге, свяжитесь с нами, и мы незамедлительно удалим ее. Файлы для обмена на трекере предоставлены пользователями сайта, и администрация не несет ответственности за их содержание. Просьба не заливать файлы, защищенные авторскими правами, а также файлы нелегального содержания!