[ Сегодня идет свободное скачивание без начисления Download ]


Статистика раздачи
Нет
 
   
 
Top  
 
 
Кто находит друга, найдет и сокровище / Chi trova un amico trova un tesoro Год выпуска: 1981
Страна: Италия, США
Производство: Take 1 Productions
Жанр: Боевик, комедия, приключения
Режиссер: Серджио Корбуччи
В ролях: Теренс Хилл, Бад Спенсер, Сальваторе Боргезе, Джон Фудзиока, Луиза Беннет, Кайнова Лауритцен, Мирна Сея, Терри Мони Мапуана, Линда Праст, Кэти Лун
Перевод: 2 x Профессиональный (многоголосый, закадровый) + Оригинал(Английский)
Субтитры: Отсутствуют
Описание: Двое авантюристов, попав на остров, затерянный в Тихом океане, пытаются найти клад, оставленный здесь еще во времена Второй Мировой войны. Но это сделать не так-то просто. Ведь его охраняют не только туземцы, но и японский солдат, не знающий, что война уже давно закончилась…

Доп. информация: На 50-х минутах есть фрагмент около 3-х минут, не переведенный и не озвученный в русской звуковой дорожке, слышен только английский дубляж, якобы потому, что этот фрагмент в издании, с которого делался русский перевод, отсуствует.
Однако этот фрагмент переведен и озвучен полностью в украинской звуковой дорожке.

Релиз от:
Качество: BDRip 720p
Продолжительность: 01:46:37
Формат: MKV
Главы: Есть
Видео кодек: AVC [email protected]
Аудио кодек: AC3
Видео: MPEG-4 AVC/H.264, 1280x720 (16:9), 23.976 fps, 7200 Kbps, 0.326 bit/pixel
Аудио: AC-3 Dolby Digital, 48.0 KHz, 2 ch, 192 Kbps, CBR (Russian) | MVO
Аудио #2: AC-3 Dolby Digital, 48.0 KHz, 2 ch, 192 Kbps, CBR (Ukrainian) | MVO
Аудио #3: AC-3 Dolby Digital, 48.0 KHz, 2 ch, 192 Kbps, CBR (English)
Премьера (мир): 10 декабря 1981
Премьера (РФ): Отсутствует

Media Info

General
Unique ID                                : 202549201499833249936011145032343319188 (0x98618EA726B6B3149062F299F6157294)
Complete name                            : Naidesh.druga.naidesh.sokroviwe.1981.x264.BDRip.(720p)-MediaClub.mkv
Format                                   : Matroska
Format version                           : Version 4 / Version 2
File size                                : 5.79 GiB
Duration                                 : 1h 46mn
Overall bit rate                         : 7 778 Kbps
Movie name                               : = MediaClub = rip by Painter
Encoded date                             : UTC 2013-08-20 17:44:55
Writing application                      : mkvmerge v6.1.0 ('Old Devil') built on Mar  2 2013 14:32:37
Writing library                          : libebml v1.3.0 + libmatroska v1.4.0
Video
ID                                       : 1
Format                                   : AVC
Format/Info                              : Advanced Video Codec
Format profile                           : [email protected]
Format settings, CABAC                   : Yes
Format settings, ReFrames                : 9 frames
Codec ID                                 : V_MPEG4/ISO/AVC
Duration                                 : 1h 46mn
Bit rate                                 : 7 200 Kbps
Width                                    : 1 280 pixels
Height                                   : 720 pixels
Display aspect ratio                     : 16:9
Frame rate mode                          : Constant
Frame rate                               : 23.976 fps
Color space                              : YUV
Chroma subsampling                       : 4:2:0
Bit depth                                : 8 bits
Scan type                                : Progressive
Bits/(Pixel*Frame)                       : 0.326
Stream size                              : 5.25 GiB (91%)
Writing library                          : x264 core 130 r2273 b3065e6
Encoding settings                        : cabac=1 / ref=9 / deblock=1:-3:-2 / analyse=0x3:0x133 / me=umh / subme=11 / psy=1 / psy_rd=1.00:0.15 / mixed_ref=1 / me_range=32 / chroma_me=1 / trellis=2 / 8x8dct=1 / cqm=0 / deadzone=21,11 / fast_pskip=0 / chroma_qp_offset=-3 / threads=6 / lookahead_threads=1 / sliced_threads=0 / nr=0 / decimate=0 / interlaced=0 / bluray_compat=0 / constrained_intra=0 / bframes=9 / b_pyramid=2 / b_adapt=2 / b_bias=0 / direct=3 / weightb=1 / open_gop=0 / weightp=2 / keyint=240 / keyint_min=23 / scenecut=40 / intra_refresh=0 / rc=2pass / mbtree=0 / bitrate=7200 / ratetol=1.0 / qcomp=0.60 / qpmin=0 / qpmax=69 / qpstep=4 / cplxblur=20.0 / qblur=0.5 / ip_ratio=1.40 / pb_ratio=1.30 / aq=1:0.80
Language                                 : English
Default                                  : Yes
Forced                                   : No
Audio #1
ID                                       : 2
Format                                   : AC-3
Format/Info                              : Audio Coding 3
Format profile                           : Dolby Digital
Mode extension                           : CM (complete main)
Format settings, Endianness              : Big
Codec ID                                 : A_AC3
Duration                                 : 1h 46mn
Bit rate mode                            : Constant
Bit rate                                 : 192 Kbps
Channel(s)                               : 2 channels
Channel positions                        : Front: L R
Sampling rate                            : 48.0 KHz
Bit depth                                : 16 bits
Compression mode                         : Lossy
Stream size                              : 146 MiB (2%)
Language                                 : Russian
Default                                  : Yes
Forced                                   : No
Audio #2
ID                                       : 3
Format                                   : AC-3
Format/Info                              : Audio Coding 3
Mode extension                           : CM (complete main)
Format settings, Endianness              : Big
Codec ID                                 : A_AC3
Duration                                 : 1h 46mn
Bit rate mode                            : Constant
Bit rate                                 : 192 Kbps
Channel(s)                               : 2 channels
Channel positions                        : Front: L R
Sampling rate                            : 48.0 KHz
Bit depth                                : 16 bits
Compression mode                         : Lossy
Stream size                              : 146 MiB (2%)
Language                                 : Ukrainian
Default                                  : No
Forced                                   : No
Audio #3
ID                                       : 4
Format                                   : AC-3
Format/Info                              : Audio Coding 3
Mode extension                           : CM (complete main)
Format settings, Endianness              : Big
Codec ID                                 : A_AC3
Duration                                 : 1h 46mn
Bit rate mode                            : Constant
Bit rate                                 : 192 Kbps
Channel(s)                               : 2 channels
Channel positions                        : Front: L R
Sampling rate                            : 48.0 KHz
Bit depth                                : 16 bits
Compression mode                         : Lossy
Stream size                              : 146 MiB (2%)
Language                                 : English
Default                                  : No
Forced                                   : No
Menu
00:00:00.000                             : :Chapter 01
00:06:04.822                             : :Chapter 02
00:16:18.227                             : :Chapter 03
00:28:16.069                             : :Chapter 04
00:40:30.428                             : :Chapter 05
00:58:14.365                             : :Chapter 06
01:13:42.376                             : :Chapter 07
01:31:03.916                             : :Chapter 08
[th]http://torrentsclub.org/pictures/5ed9ce51f2917acf8c...a937685.png[/th] [th]http://torrentsclub.org/pictures/72f3254e344c1977b2...29e8621.png[/th] [th]http://torrentsclub.org/pictures/41e300fc9404f54f57...f07225f.png[/th]

[Цитировать]



Показать сообщения:    

Текущее время: 06-Дек 13:20

Часовой пояс: UTC + 3


Вы не можете начинать темы
Вы не можете отвечать на сообщения
Вы не можете редактировать свои сообщения
Вы не можете удалять свои сообщения
Вы не можете голосовать в опросах
Вы не можете прикреплять файлы к сообщениям
Вы не можете скачивать файлы

!ВНИМАНИЕ!
Сайт не предоставляет электронные версии произведений, а занимается лишь коллекционированием и каталогизацией ссылок, присылаемых и публикуемых на форуме нашими читателями. Если вы являетесь правообладателем какого-либо представленного материала и не желаете, чтобы ссылка на него находилась в нашем каталоге, свяжитесь с нами, и мы незамедлительно удалим ее. Файлы для обмена на трекере предоставлены пользователями сайта, и администрация не несет ответственности за их содержание. Просьба не заливать файлы, защищенные авторскими правами, а также файлы нелегального содержания!