[ Сегодня идет свободное скачивание без начисления Download ]


Статистика раздачи
Нет
 
   
 
 
 
Болезнь / The Sorrow Год выпуска: 2013
Страна: США
Производство: Rogue Arts, Unconventional Films
Жанр: Вестерн, Приключения
Режиссер: Вернон И. Мортенсен
В ролях: Кирк Харрис, Райан Балланс, Майкл Мэдсен, Джон Сэвидж, Мэтт Брэдфорд, Стивен Майерс, Келли Парков
Перевод: Двуголосый закадровый, профессиональный
Субтитры: Отсутствуют
Описание: 1870-е годы, золотые рудники Калифорнии. Касперу, 12-летнему сыну золотоискателя, приходится выживать самостоятельно после того, как его отец сходит с ума.
Качество: SATRip
Продолжительность: 01:27:43
Формат: AVI
Видео кодек: XviD
Аудио кодек: AC3
Видео: 720 x 384 (1,875), 25 fps, 2033 kbps, 0.294 bit/ pixel
Аудио: 48 kHz, AC3, 2.0 ch, 192 kbps

Media Info

Общее
Полное имя : D:\Торренты\Болезнь.2013.SATRip.avi
Формат : AVI
Формат/Информация : Audio Video Interleave
Размер файла : 1,37 Гбайт
Продолжительность : 1 ч. 27 м.
Общий поток : 2235 Кбит/сек
Программа кодирования : VirtualDubMod 1.5.10.2 (build 2540/release)
Библиотека кодирования : VirtualDubMod build 2540/release
Видео
Идентификатор : 0
Формат : MPEG-4 Visual
Профиль формата : Advanced Simple@L5
Параметр BVOP формата : 2
Параметр QPel формата : Нет
Параметр GMC формата : Без точки перехода
Параметр матрицы формата : Default (MPEG)
Идентификатор кодека : XVID
Идентификатор кодека/Подсказка : XviD
Продолжительность : 1 ч. 27 м.
Битрейт : 2033 Кбит/сек
Ширина : 720 пикс.
Высота : 384 пикс.
Соотношение сторон : 1,875
Частота кадров : 25,000 кадр/сек
Цветовое пространство : YUV
Подвыборка цветности : 4:2:0
Битовая глубина : 8 бит
Тип развёртки : Прогрессивная
Метод сжатия : С потерями
Бит/(Пиксели*Кадры) : 0.294
Размер потока : 1,24 Гбайт (91%)
Библиотека кодирования : XviD 1.2.1 (UTC 2008-12-04)
Аудио
Идентификатор : 1
Формат : AC-3
Формат/Информация : Audio Coding 3
Расширение режима : CM (complete main)
Идентификатор кодека : 2000
Продолжительность : 1 ч. 27 м.
Вид битрейта : Постоянный
Битрейт : 192 Кбит/сек
Каналы : 2 канала
Расположение каналов : Front: L R
Частота : 48,0 КГц
Битовая глубина : 16 бит
Метод сжатия : С потерями
Размер потока : 120 Мбайт (9%)
Выравнивание : Разделение по промежуткам
Продолжительность промежутка : 40 мс. (1,00 видеокадр)
Время предзагрузки промежутка : 500 ms
[th]http://torrentsclub.org/pictures/bf727c0a4064ca3304...8a8d71c.jpg[/th] [th]http://torrentsclub.org/pictures/add27568d510a6d14f...0b0f833.jpg[/th] [th]http://torrentsclub.org/pictures/eca67c764a315ea5ad...dca9e05.jpg[/th]

[Цитировать]

Топик был перенесен из форума Новинки кинопроката в форум Вестерн
Henkok



Показать сообщения:    

Текущее время: 11-Дек 11:06

Часовой пояс: UTC + 3


Вы не можете начинать темы
Вы не можете отвечать на сообщения
Вы не можете редактировать свои сообщения
Вы не можете удалять свои сообщения
Вы не можете голосовать в опросах
Вы не можете прикреплять файлы к сообщениям
Вы не можете скачивать файлы

!ВНИМАНИЕ!
Сайт не предоставляет электронные версии произведений, а занимается лишь коллекционированием и каталогизацией ссылок, присылаемых и публикуемых на форуме нашими читателями. Если вы являетесь правообладателем какого-либо представленного материала и не желаете, чтобы ссылка на него находилась в нашем каталоге, свяжитесь с нами, и мы незамедлительно удалим ее. Файлы для обмена на трекере предоставлены пользователями сайта, и администрация не несет ответственности за их содержание. Просьба не заливать файлы, защищенные авторскими правами, а также файлы нелегального содержания!