[ Сегодня идет свободное скачивание без начисления Download ]


Статистика раздачи
Нет
 
   
 
Top  
 
 
Капли крови на цветущем вереске / Лето волков
Страна: Россия
Год выпуска: 2011
Производство: Кинокомпания «Дирекция кино» и Первый канал
Жанр: Военный, Драма
Продолжительность: 6 x ~ 00:50:00
Режиссёр: Дмитрий Иосифов
В ролях: Алексей Бардуков, Юлия Пересильд, Вера Кавалерова, Михаил Евланов, Игорь Скляр, Сергей Колтаков, Александр Воробьёв, Сергей Власов (S.A.V.), Мария Куликова, Петр Томашевский, Анна Полупанова, Максим Житник, Алексей Морозов (II)
Описание: Белорусская деревня, 1944 год - времена, когда наша земля была освобождена от оккупантов.
Приход советских войск в Белоруссию был воспринят неоднозначно. Многие радовались освобождению от фашистов. Но часть населения, как и раньше, была против советского режима.
Какая судьба ожидает выживших в страшном огне войны? Сотни деревень сожжены дотла, города стоят в сплошных руинах…
Молодому лейтенанту, который возвращается с фронта домой к матери, предстоит познать все ужасы послевоенных месяцев, проверить свою дружбу, найти настоящую любовь и увидеть, как умирают близкие.

Качество: DVDRip
Формат: AVI
Видео кодек: DivX
Аудио кодек: AC3
Видео: DivX, 1140 Кбит/с, 704x400, 25 fps, 0.163 bit/pixel
Аудио: 48 kHz, AC-3, 6 ch, 384 kbps

Скриншоты

MI

General
Complete name : C:\Users\Volodqka\Videos\Худ.фильмы\Leto.volkov.(6.serij.iz.6).2011.DivX.DVDRip\Leto.volkov.(1.seriya.iz.6).2011.DivX.DVDRip.avi
Format : AVI
Format/Info : Audio Video Interleave
File size : 555 MiB
Duration : 50mn 30s
Overall bit rate : 1 537 Kbps
Writing application : VirtualDubMod 1.5.4.1 (build 2178/release)
Writing library : VirtualDubMod build 2178/release
Video
ID : 0
Format : MPEG-4 Visual
Format settings, BVOP : No
Format settings, QPel : No
Format settings, GMC : No warppoints
Format settings, Matrix : Default (H.263)
Codec ID : DX50
Codec ID/Hint : DivX 5
Duration : 50mn 30s
Bit rate : 1 146 Kbps
Width : 704 pixels
Height : 400 pixels
Display aspect ratio : 16:9
Frame rate : 25.000 fps
Color space : YUV
Chroma subsampling : 4:2:0
Bit depth : 8 bits
Scan type : Progressive
Compression mode : Lossy
Bits/(Pixel*Frame) : 0.163
Stream size : 414 MiB (75%)
Writing library : DivX 5.2.1 (WaffleDay) (UTC 2004-09-08)
Audio
ID : 1
Format : AC-3
Format/Info : Audio Coding 3
Mode extension : CM (complete main)
Codec ID : 2000
Duration : 50mn 30s
Bit rate mode : Constant
Bit rate : 384 Kbps
Channel(s) : 6 channels
Channel positions : Front: L C R, Side: L R, LFE
Sampling rate : 48.0 KHz
Bit depth : 16 bits
Compression mode : Lossy
Stream size : 139 MiB (25%)
Alignment : Split accross interleaves
Interleave, duration : 96 ms (2.40 video frames)
Interleave, preload duration : 96 ms

[Цитировать]

Отредактировал. Ссылок на посторонний ресурс быть не должно!

[Цитировать]



Показать сообщения:    

Текущее время: 06-Дек 22:56

Часовой пояс: UTC + 3


Вы не можете начинать темы
Вы не можете отвечать на сообщения
Вы не можете редактировать свои сообщения
Вы не можете удалять свои сообщения
Вы не можете голосовать в опросах
Вы не можете прикреплять файлы к сообщениям
Вы не можете скачивать файлы

!ВНИМАНИЕ!
Сайт не предоставляет электронные версии произведений, а занимается лишь коллекционированием и каталогизацией ссылок, присылаемых и публикуемых на форуме нашими читателями. Если вы являетесь правообладателем какого-либо представленного материала и не желаете, чтобы ссылка на него находилась в нашем каталоге, свяжитесь с нами, и мы незамедлительно удалим ее. Файлы для обмена на трекере предоставлены пользователями сайта, и администрация не несет ответственности за их содержание. Просьба не заливать файлы, защищенные авторскими правами, а также файлы нелегального содержания!