[ Сегодня идет свободное скачивание без начисления Download ]


Статистика раздачи
Нет
 
   
 
Top  
 
 
Мстители / The Avengers«Спасая мир, они не теряют стиля»
Год выпуска: 1998
Страна: США
Производство: Warner Bros. Pictures
Жанр: Фантастика, Боевик, Триллер
Режиссер: Джеримайя С. Чечик
В ролях: Рэйф Файнс, Ума Турман, Шон Коннери, Патрик Макни, Джим Бродбент, Фиона Шоу, Эдди Иззард, Айлин Эткинс, Джон Вуд, Кармен Эджого
Перевод: Профессиональный (полное дублирование) + Оригинал (Английский)
Субтитры: Русские, Английские (Отдельным файлом)
Описание: Элегантный Джон Стид в шляпе — котелке и стильная, с кошачьей грацией Эмма Пил. Они пытаются остановить коварного злодея сэра Августа Де Винтера, владеющего секретом управления погодой.
Замысел преступника — покорить мир, ввергнув его в холод и стужу… Фантастические трюки, масштабные декорации, эффектные костюмы Эммы, — все это в сочных красках, под музыку Шиннед О`Коннор и Энни Леннокс.

Качество: DVDRip
Продолжительность: 01:25:57 час.
Формат: AVI
Видео кодек: XviD
Аудио кодек: AC3
Видео: 704x384 (1,85:1), 25 fps, 1636 kbps, 0.242 bit/ pixel
Аудио: 48 kHz, AC3 Dolby Digital, 6 ch, ~384.00 kbps | Русский (Дублированный)
Аудио #2: 48 kHz, AC3 Dolby Digital, 3/2 (L,C,R,l,r) + LFE ch, ~384.00 kbps | Английский (Оригинал)
Премьера (мир): 13 августа 1998
Премьера (РФ): Неивестно

Media Info

Общее
Полное имя : D:\Torrent\The Avengers.1998.DVDRip\The Avengers.1998.DVDRip.avi
Формат : AVI
Формат/Информация : Audio Video Interleave
Размер файла : 1,45 Гбайт
Продолжительность : 1 ч. 25 м.
Общий поток : 2418 Кбит/сек
Название фильма : The Avengers.1998.DVDRip rip by Rulya74
Программа кодирования : VirtualDubModRus 1.5.10.2 (build 2542/release)
Видео
Идентификатор : 0
Формат : MPEG-4 Visual
Профиль формата : Advanced Simple@L5
Параметр BVOP формата : 1
Параметр QPel формата : Нет
Параметр GMC формата : Без точки перехода
Параметр матрицы формата : Выборочная
Режим смешивания : Сжатый битовый поток
Идентификатор кодека : XVID
Идентификатор кодека/Подсказка : XviD
Продолжительность : 1 ч. 25 м.
Битрейт : 1636 Кбит/сек
Ширина : 704 пикселя
Высота : 384 пикселя
Соотношение сторон : 1,85:1
Частота кадров : 25,000 кадров/сек
Цветовое пространство : YUV
Субдискретизация насыщенности : 4:2:0
Битовая глубина : 8 бит
Тип развёртки : Прогрессивная
Метод сжатия : С потерями
Бит/(Пиксели*Кадры) : 0.242
Размер потока : 1006 Мбайт (68%)
Библиотека кодирования : XviD 73
Аудио #1
Идентификатор : 1
Формат : AC-3
Формат/Информация : Audio Coding 3
Идентификатор кодека : 2000
Продолжительность : 1 ч. 25 м.
Вид битрейта : Постоянный
Битрейт : 384 Кбит/сек
Каналы : 6 каналов
Частота : 48,0 КГц
Метод сжатия : С потерями
Размер потока : 236 Мбайт (16%)
Выравнивание : Разделение по промежуткам
Продолжительность промежутка : 40 мс. (1,00 видеокадр)
Время предзагрузки промежутка : 500 мс.
Заголовок : Дублированный
Аудио #2
Идентификатор : 2
Формат : AC-3
Формат/Информация : Audio Coding 3
Расширение режима : CM (complete main)
Параметр Endianness формата : Big
Идентификатор кодека : 2000
Продолжительность : 1 ч. 25 м.
Вид битрейта : Постоянный
Битрейт : 384 Кбит/сек
Каналы : 6 каналов
Расположение каналов : Front: L C R, Side: L R, LFE
Частота : 48,0 КГц
Битовая глубина : 16 бит
Метод сжатия : С потерями
Размер потока : 236 Мбайт (16%)
Выравнивание : Разделение по промежуткам
Продолжительность промежутка : 40 мс. (1,00 видеокадр)
Время предзагрузки промежутка : 500 мс.
Заголовок : Оригинал (Английский)
[th]http://torrentsclub.org/pictures/c0585722bf356100a7...dfcfa9a.jpg[/th] [th]http://torrentsclub.org/pictures/918c18a9daebcac9c6...8326444.jpg[/th] [th]http://torrentsclub.org/pictures/8eca52f4ef9961fe4a...f5bfcf3.jpg[/th]

[Цитировать]



Показать сообщения:    

Текущее время: 11-Дек 07:18

Часовой пояс: UTC + 3


Вы не можете начинать темы
Вы не можете отвечать на сообщения
Вы не можете редактировать свои сообщения
Вы не можете удалять свои сообщения
Вы не можете голосовать в опросах
Вы не можете прикреплять файлы к сообщениям
Вы не можете скачивать файлы

!ВНИМАНИЕ!
Сайт не предоставляет электронные версии произведений, а занимается лишь коллекционированием и каталогизацией ссылок, присылаемых и публикуемых на форуме нашими читателями. Если вы являетесь правообладателем какого-либо представленного материала и не желаете, чтобы ссылка на него находилась в нашем каталоге, свяжитесь с нами, и мы незамедлительно удалим ее. Файлы для обмена на трекере предоставлены пользователями сайта, и администрация не несет ответственности за их содержание. Просьба не заливать файлы, защищенные авторскими правами, а также файлы нелегального содержания!