[ Сегодня идет свободное скачивание без начисления Download ]


Статистика раздачи
Нет
 
   
 
Top  
 
 
Пена дней / L'?cume des jours Год выпуска: 2013
Страна: Франция, Бельгия
Производство: Angoa-Agicoa, Anton Capital Entertainment (ACE)
Жанр: Фэнтези, Мелодрама, Драма
Режиссер: Мишель Гондри
В ролях: Люк Босси, Ксавье Кастано, Женевьева Лемаль
Актеры: Ромэн Дюри, Одри Тоту, Омар Си, Шарлотта Лебон, Филипп Торретон, Винсент Роттирс, Лорент Лэфитт, Зинедин Суалам, Ален Шаба, Марина Розенмен, Мэтью Полус

Перевод: Профессиональный (полное дублирование) | (лицензия)
Субтитры: Отсутствуют
Описание: История любви, разворачивающаяся в фантастическом мире, где влюбленные летают на свидания в розовых тучках и танцуют на потолке, где в коридоре обычной квартиры живет солнце, а мыши-домоправители ведут беседы с кошками, где цветы прорастают внутри людей и тепло человеческого сердца способно уничтожить самое опасное оружие.
Качество: HDRip
Продолжительность: 02:10:47 час.
Формат: AVI
Видео кодек: XviD
Аудио кодек: AC3
Видео: 720x384 (1,85:1), 24 fps, ~1039 kbps, 0.157 bit/ pixel
Аудио: 48 kHz, AC3, 5.1 ch, ~448 kbps
Премьера (мир): 24 апреля 2013
Премьера (РФ): 4 июля 2013, «Премиум Фильм»

Media Info

Общее
Полное имя : D:\Фильмы\Pena.dnej.2013.D.HDRip.1400Mb.avi
Формат : AVI
Формат/Информация : Audio Video Interleave
Размер файла : 1,37 Гбайт
Продолжительность : 2 ч. 10 м.
Общий поток : 1496 Кбит/сек
Программа кодирования : VirtualDubMod 1.5.10.2 (build 2540/release)
Библиотека кодирования : VirtualDubMod build 2540/release
Видео
Идентификатор : 0
Формат : MPEG-4 Visual
Профиль формата : Advanced Simple@L5
Параметр BVOP формата : 2
Параметр QPel формата : Нет
Параметр GMC формата : Без точки перехода
Параметр матрицы формата : Default (MPEG)
Идентификатор кодека : XVID
Идентификатор кодека/Подсказка : XviD
Продолжительность : 2 ч. 10 м.
Битрейт : 1039 Кбит/сек
Ширина : 720 пикселей
Высота : 384 пикселя
Соотношение сторон : 1,85:1
Частота кадров : 24,000 кадра/сек
Цветовое пространство : YUV
Субдискретизация насыщенности : 4:2:0
Битовая глубина : 8 бит
Тип развёртки : Прогрессивная
Метод сжатия : С потерями
Бит/(Пиксели*Кадры) : 0.157
Размер потока : 972 Мбайт (69%)
Библиотека кодирования : XviD 1.2.1 (UTC 2008-12-04)
Аудио
Идентификатор : 1
Формат : AC-3
Формат/Информация : Audio Coding 3
Расширение режима : CM (complete main)
Параметр Endianness формата : Big
Идентификатор кодека : 2000
Продолжительность : 2 ч. 10 м.
Вид битрейта : Постоянный
Битрейт : 448 Кбит/сек
Каналы : 6 каналов
Расположение каналов : Front: L C R, Side: L R, LFE
Частота : 48,0 КГц
Битовая глубина : 16 бит
Метод сжатия : С потерями
Размер потока : 419 Мбайт (30%)
Выравнивание : Разделение по промежуткам
Продолжительность промежутка : 42 мс. (1,00 видеокадр)
Время предзагрузки промежутка : 500 мс.
[th]http://torrentsclub.org/pictures/ee33b70d09f77172c9...e40c6c4.png[/th] [th]http://torrentsclub.org/pictures/eb06338704d54efb95...6b279e3.png[/th] [th]http://torrentsclub.org/pictures/cf400df653e8d42ef4...1e1b9b4.png[/th]

[Цитировать]

Топик был перенесен из форума Новинки кинопроката в форум Фэнтези
Henkok



Показать сообщения:    

Текущее время: 11-Дек 14:57

Часовой пояс: UTC + 3


Вы не можете начинать темы
Вы не можете отвечать на сообщения
Вы не можете редактировать свои сообщения
Вы не можете удалять свои сообщения
Вы не можете голосовать в опросах
Вы не можете прикреплять файлы к сообщениям
Вы не можете скачивать файлы

!ВНИМАНИЕ!
Сайт не предоставляет электронные версии произведений, а занимается лишь коллекционированием и каталогизацией ссылок, присылаемых и публикуемых на форуме нашими читателями. Если вы являетесь правообладателем какого-либо представленного материала и не желаете, чтобы ссылка на него находилась в нашем каталоге, свяжитесь с нами, и мы незамедлительно удалим ее. Файлы для обмена на трекере предоставлены пользователями сайта, и администрация не несет ответственности за их содержание. Просьба не заливать файлы, защищенные авторскими правами, а также файлы нелегального содержания!