[ Сегодня идет свободное скачивание без начисления Download ]


Статистика раздачи
Нет
 
   
 
Top  
 
 
К-9: Трилогия / K-9: Trilogy

К-9: Собачья работа

К-9: Собачья работа / K-9
«Встречайте двух самых крутых полицейских в городе. Один немного сообразительнее другого.»

Год выпуска: 1989
Страна: США
Производство: Universal
Жанр: боевик, комедия, криминал
Режиссер: Род Дэниэл
В ролях: Джеймс Белуши, Мел Хэррис, Кевин Тиг, Эд О'Нилл, Джерри Ли, Джеймс Хэнди
Перевод: Профессиональный (двухголосый)
Субтитры: Отсутствуют
Описание: Веселый полицейский-выдумщик Майкл Дули попал в беду: его пытается убить известный наркодилер за то, что тот все время вмешивается в бизнес. Друг полицейского дает ему собаку по имени Джерри Ли, специально натасканную на запах наркотиков. С помощью пса Майкл надеется поймать преступника и разоблачить его, но не так все просто.
У Джерри Ли свой характер и он работает только когда пожелает. К тому же собака принимает радостное участие в поломке машины Майкла, разгроме дома и его личной жизни…


Качество: DVDRip
Продолжительность: 01:37:09
Формат: AVI
Видео кодек: XviD
Аудио кодек: AC3
Видео: 720x384 (1.88:1), 25 fps, XviD build 47 ~1813 kbps avg, 0.26 bit/pixel
Аудио: 48 kHz, AC3 Dolby Digital, 2/0 (L,R) ch, ~192 kbps

Media Info

General
Complete name                  : D:\фильмы\K.9.Sobachja.rabota.1989.XviD.DVDRip.avi
Format                         : AVI
Format/Info                    : Audio Video Interleave
File size                      : 1.37 GiB
Duration                       : 1h 37mn
Overall bit rate               : 2 012 Kbps
Writing application            : VirtualDubMod 1.5.4.1 (build 2178/release)
Writing library                : VirtualDubMod build 2178/release
Video
ID                             : 0
Format                         : MPEG-4 Visual
Format profile                 : Advanced Simple@L5
Format settings, BVOP          : 1
Format settings, QPel          : No
Format settings, GMC           : No warppoints
Format settings, Matrix        : Custom
Codec ID                       : XVID
Codec ID/Hint                  : XviD
Duration                       : 1h 37mn
Bit rate                       : 1 813 Kbps
Width                          : 720 pixels
Height                         : 384 pixels
Display aspect ratio           : 1.875
Frame rate                     : 25.000 fps
Color space                    : YUV
Chroma subsampling             : 4:2:0
Bit depth                      : 8 bits
Scan type                      : Progressive
Compression mode               : Lossy
Bits/(Pixel*Frame)             : 0.262
Stream size                    : 1.23 GiB (90%)
Writing library                : XviD 1.2.0.dev47 (UTC 2006-11-01)
Audio
ID                             : 1
Format                         : AC-3
Format/Info                    : Audio Coding 3
Mode extension                 : CM (complete main)
Codec ID                       : 2000
Duration                       : 1h 37mn
Bit rate mode                  : Constant
Bit rate                       : 192 Kbps
Channel(s)                     : 2 channels
Channel positions              : Front: L R
Sampling rate                  : 48.0 KHz
Bit depth                      : 16 bits
Compression mode               : Lossy
Stream size                    : 133 MiB (10%)
Alignment                      : Split accross interleaves
Interleave, duration           : 96 ms (2.40 video frames)
Interleave, preload duration   : 96 ms
Language                       : Russian

Скриншоты

К-911

К-911 / К-911
«One's still a little smarter than the other.»

Год выпуска: 1999
Страна: США
Производство: Universal
Жанр: боевик, комедия, криминал
Режиссер: Чарлз Т. Кэнгэнис
В ролях: Джеймс Белуши, Мел Хэррис, Кевин Тиг, Эд О'Нилл, Джерри Ли, Джеймс Хэнди, Джей Джей Джонстон, Скотч Эллис Лоринг
Перевод: Профессиональный (двухголосый)
Субтитры: Отсутствуют
Описание: Заслуженный детектив Дули и его верный напарник, настоящий полицейский пес Джерри Ли, по — прежнему стоят на страже порядка, оберегая покой добропорядочных граждан. Эта легендарная полицейская пара уже давно съела собаку в деле отлова и последующего наказания преступников всех мастей...

Качество: DVDRip
Продолжительность: 01:27:13
Формат: AVI
Видео кодек: XviD
Аудио кодек: AC3
Видео: 720x384 (1.88:1), 25 fps, XviD build 47 ~1787 kbps avg, 0.26 bit/pixel
Аудио: 48 kHz, AC3 Dolby Digital, 2/0 (L,R) ch, ~448 kbps

Media Info

General
Complete name                  : D:\фильмы\K.9.Trilogija\K.911.1999.XviD.DVDRip.avi
Format                         : AVI
Format/Info                    : Audio Video Interleave
File size                      : 1.37 GiB
Duration                       : 1h 27mn
Overall bit rate               : 2 242 Kbps
Writing application            : VirtualDubMod 1.5.4.1 (build 2178/release)
Writing library                : VirtualDubMod build 2178/release
Video
ID                             : 0
Format                         : MPEG-4 Visual
Format profile                 : Advanced Simple@L5
Format settings, BVOP          : 1
Format settings, QPel          : No
Format settings, GMC           : No warppoints
Format settings, Matrix        : Custom
Codec ID                       : XVID
Codec ID/Hint                  : XviD
Duration                       : 1h 27mn
Bit rate                       : 1 787 Kbps
Width                          : 720 pixels
Height                         : 384 pixels
Display aspect ratio           : 1.875
Frame rate                     : 25.000 fps
Color space                    : YUV
Chroma subsampling             : 4:2:0
Bit depth                      : 8 bits
Scan type                      : Progressive
Compression mode               : Lossy
Bits/(Pixel*Frame)             : 0.259
Stream size                    : 1.09 GiB (80%)
Writing library                : XviD 1.2.0.dev47 (UTC 2006-11-01)
Audio
ID                             : 1
Format                         : AC-3
Format/Info                    : Audio Coding 3
Mode extension                 : CM (complete main)
Codec ID                       : 2000
Duration                       : 1h 27mn
Bit rate mode                  : Constant
Bit rate                       : 448 Kbps
Channel(s)                     : 2 channels
Channel positions              : Front: L R
Sampling rate                  : 48.0 KHz
Bit depth                      : 16 bits
Compression mode               : Lossy
Stream size                    : 279 MiB (20%)
Alignment                      : Split accross interleaves
Interleave, duration           : 96 ms (2.40 video frames)
Interleave, preload duration   : 96 ms
Language                       : Russian

Скриншоты

К-9 III: Частные детективы

К-9 III: Частные детективы / K-9: P.I.
«The Odd Couple Is Back!»

Год выпуска: 1999
Страна: США
Производство: Universal
Жанр: боевик, комедия, криминал
Режиссер: Ричард Дж. Льюис, Кевин Дюран
В ролях: Джеймс Белуши, Мел Хэррис, Кевин Тиг, Эд О'Нилл, Джерри Ли, Джеймс Хэнди, Джей Джей Джонстон, Скотч Эллис Лоринг
Перевод: Профессиональный (двухголосый)
Субтитры: Отсутствуют
Описание: Заслуженный детектив Дули и его верный напарник, настоящий полицейский пес Джерри Ли, по — прежнему стоят на страже порядка, оберегая покой добропорядочных граждан. Эта легендарная полицейская пара уже давно съела собаку в деле отлова и последующего наказания преступников всех мастей...

Качество: DVDRip
Продолжительность: 01:30:59
Формат: AVI
Видео кодек: XviD
Аудио кодек: AC3
Видео: 720x384 (1.88:1), 25 fps, XviD build 47 ~1950 kbps avg, 0.28 bit/pixel
Аудио: 48 kHz, AC3 Dolby Digital, 2/0 (L,R) ch, ~192 kbps

Media Info

General
Complete name                  : D:\фильмы\K.9.Trilogija\K.9.Chastnye.detektivy.2002.XviD.DVDRip.avi
Format                         : AVI
Format/Info                    : Audio Video Interleave
File size                      : 1.37 GiB
Duration                       : 1h 30mn
Overall bit rate               : 2 149 Kbps
Writing application            : VirtualDubMod 1.5.4.1 (build 2178/release)
Writing library                : VirtualDubMod build 2178/release
Video
ID                             : 0
Format                         : MPEG-4 Visual
Format profile                 : Advanced Simple@L5
Format settings, BVOP          : No
Format settings, QPel          : No
Format settings, GMC           : No warppoints
Format settings, Matrix        : Custom
Codec ID                       : XVID
Codec ID/Hint                  : XviD
Duration                       : 1h 30mn
Bit rate                       : 1 950 Kbps
Width                          : 720 pixels
Height                         : 384 pixels
Display aspect ratio           : 1.875
Frame rate                     : 25.000 fps
Color space                    : YUV
Chroma subsampling             : 4:2:0
Bit depth                      : 8 bits
Scan type                      : Progressive
Compression mode               : Lossy
Bits/(Pixel*Frame)             : 0.282
Stream size                    : 1.24 GiB (91%)
Writing library                : XviD 1.2.0.dev47 (UTC 2006-11-01)
Audio
ID                             : 1
Format                         : AC-3
Format/Info                    : Audio Coding 3
Format profile                 : Dolby Digital
Mode extension                 : CM (complete main)
Codec ID                       : 2000
Duration                       : 1h 30mn
Bit rate mode                  : Constant
Bit rate                       : 192 Kbps
Channel(s)                     : 2 channels
Channel positions              : Front: L R
Sampling rate                  : 48.0 KHz
Bit depth                      : 16 bits
Compression mode               : Lossy
Stream size                    : 125 MiB (9%)
Alignment                      : Split accross interleaves
Interleave, duration           : 96 ms (2.40 video frames)
Interleave, preload duration   : 96 ms
Language                       : Russian

Скриншоты

[Цитировать]



Показать сообщения:    

Текущее время: 08-Дек 12:48

Часовой пояс: UTC + 3


Вы не можете начинать темы
Вы не можете отвечать на сообщения
Вы не можете редактировать свои сообщения
Вы не можете удалять свои сообщения
Вы не можете голосовать в опросах
Вы не можете прикреплять файлы к сообщениям
Вы не можете скачивать файлы

!ВНИМАНИЕ!
Сайт не предоставляет электронные версии произведений, а занимается лишь коллекционированием и каталогизацией ссылок, присылаемых и публикуемых на форуме нашими читателями. Если вы являетесь правообладателем какого-либо представленного материала и не желаете, чтобы ссылка на него находилась в нашем каталоге, свяжитесь с нами, и мы незамедлительно удалим ее. Файлы для обмена на трекере предоставлены пользователями сайта, и администрация не несет ответственности за их содержание. Просьба не заливать файлы, защищенные авторскими правами, а также файлы нелегального содержания!