[ Сегодня идет свободное скачивание без начисления Download ]


Статистика раздачи
Нет
 
   
 
Top  
 
 
Зловещие мертвецы: Чёрная книга / Evil Dead
«Уже не остановить»
- Страна: США
Студия: Ghost House Pictures
Жанр: Ужасы
Год выпуска: 2013
Продолжительность: 01:31:18-Перевод 1: Профессиональный (дублированный) - Blu-ray CEE
Перевод 2: Одноголосый закадровый
Перевод 3: Авторский (одноголосый закадровый) - Антон Карповский
Оригинальная аудиодорожка: английский
Cубтитры: Русские (Blu-ray CEE, MartinaG), Английские (Full, SDH, SDH-COLORED, Commentary)
Режиссер: Федерико Альварес
Сценарий: Федерико Альварес, Родольфо Саягес, Сэм Рэйми
Продюсер: Брюс Кэмпбелл, Сэм Рэйми, Роберт Дж. Тейперт
Оператор: Аарон Мортон
Композитор: Роке Баньос
В ролях: Джейн Леви, Шайло Фернандес, Лу Тэйлор Пуччи, Джессика Лукас, Элизабет Блэкмор, Феникс Коннолли, Джим МакЛарти, Сиан Дэвис, Стефен Баттерворф, Карл Виллетц-Описание: Молодая женщина Миа, пытающаяся избавиться от наркозависимости, отправляется вместе с братом и группой друзей в удалённую хижину, где они открывают Книгу мёртвых, что приводит к опасности и ужасу.-СЕМПЛ-Тип релиза: BDRip 1080p | Контейнер: MKV | Видео кодек: AVC | Аудио кодек: AC3, DTS |
Видео: 1920x804 (OAR) at 23.976 fps, x264@L4.1, 2pass, ~13.5 Mbps avg
Аудио №1: 48 kHz, AC3 5.1 ~640 kbps avg /RUS/ Дубляж (Blu-ray CEE)
Аудио №2: 48 kHz, DTS 5.1 ~1509 kbps avg /RUS/ А. Матвеев (Doctor Joker) (обсценная лексика)
Аудио №3: 48 kHz, DTS 5.1 ~1509 kbps avg /RUS/ А. Карповский (обсценная лексика)
Аудио №4: 48 kHz, DTS 5.1 ~1509 kbps avg /ENG/ Original
Аудио №5: 48 kHz, AC3 5.1 ~640 kbps avg /ENG/ Descriptive
Аудио №6: 48 kHz, AC3 2.0 ~192 kbps avg /ENG/ Commentary
Формат субтитров: softsub (SRT)

MediaInfo

General
Unique ID : 206786583270761104063997124123815728121 (0x9B91A5B443B7D5C98685D060389E53F9)
Complete name : C:\Evil.Dead.2013.BDRip.1080p.3xRus.Eng-HDMaNiAcS.mkv
Format : Matroska
Format version : Version 4 / Version 2
File size : 12.4 GiB
Duration : 1h 31mn
Overall bit rate : 19.5 Mbps
Encoded date : UTC 2013-07-17 14:53:35
Writing application : mkvmerge v6.3.0 ('You can't stop me!') built on Jun 28 2013 20:09:41
Writing library : libebml v1.3.0 + libmatroska v1.4.0
Video
ID : 1
Format : AVC
Format/Info : Advanced Video Codec
Format profile : High@L4.1
Format settings, CABAC : Yes
Format settings, ReFrames : 5 frames
Codec ID : V_MPEG4/ISO/AVC
Duration : 1h 31mn
Bit rate : 13.5 Mbps
Width : 1 920 pixels
Height : 804 pixels
Display aspect ratio : 2.40:1
Frame rate mode : Constant
Frame rate : 23.976 fps
Color space : YUV
Chroma subsampling : 4:2:0
Bit depth : 8 bits
Scan type : Progressive
Bits/(Pixel*Frame) : 0.365
Stream size : 8.36 GiB (67%)
Title : Evil.Dead.2013.1080p.BluRay.DTS.x264-HDMaNiAcS
Writing library : x264 core 133 r2334 a3ac64b
Encoding settings : cabac=1 / ref=5 / deblock=1:-3:-3 / analyse=0x3:0x133 / me=tesa / subme=11 / psy=1 / psy_rd=0.90:0.05 / mixed_ref=1 / me_range=24 / chroma_me=1 / trellis=2 / 8x8dct=1 / cqm=0 / deadzone=21,11 / fast_pskip=1 / chroma_qp_offset=-3 / threads=12 / lookahead_threads=2 / sliced_threads=0 / nr=0 / decimate=1 / interlaced=0 / bluray_compat=0 / constrained_intra=0 / bframes=8 / b_pyramid=2 / b_adapt=2 / b_bias=0 / direct=3 / weightb=1 / open_gop=0 / weightp=2 / keyint=240 / keyint_min=23 / scenecut=40 / intra_refresh=0 / rc=2pass / mbtree=0 / bitrate=13500 / ratetol=1.0 / qcomp=0.70 / qpmin=10 / qpmax=69 / qpstep=4 / cplxblur=20.0 / qblur=0.5 / ip_ratio=1.40 / pb_ratio=1.30 / aq=2:0.55
Language : English
Default : Yes
Forced : No
Audio #1
ID : 2
Format : AC-3
Format/Info : Audio Coding 3
Mode extension : CM (complete main)
Format settings, Endianness : Big
Codec ID : A_AC3
Duration : 1h 31mn
Bit rate mode : Constant
Bit rate : 640 Kbps
Channel count : 6 channels
Channel positions : Front: L C R, Side: L R, LFE
Sampling rate : 48.0 KHz
Bit depth : 16 bits
Compression mode : Lossy
Stream size : 418 MiB (3%)
Title : AC3 5.1 @ 640 kbps - DUB (Blu-ray CEE)
Language : Russian
Default : Yes
Forced : No
Audio #2
ID : 3
Format : DTS
Format/Info : Digital Theater Systems
Mode : 16
Format settings, Endianness : Big
Codec ID : A_DTS
Duration : 1h 31mn
Bit rate mode : Constant
Bit rate : 1 509 Kbps
Channel count : 6 channels
Channel positions : Front: L C R, Side: L R, LFE
Sampling rate : 48.0 KHz
Bit depth : 24 bits
Compression mode : Lossy
Stream size : 986 MiB (8%)
Title : DTS 5.1 @ 1536 kbps - AVO Матвеев (Doctor Joker)
Language : Russian
Default : No
Forced : No
Audio #3
ID : 4
Format : DTS
Format/Info : Digital Theater Systems
Mode : 16
Format settings, Endianness : Big
Codec ID : A_DTS
Duration : 1h 31mn
Bit rate mode : Constant
Bit rate : 1 509 Kbps
Channel count : 6 channels
Channel positions : Front: L C R, Side: L R, LFE
Sampling rate : 48.0 KHz
Bit depth : 24 bits
Compression mode : Lossy
Stream size : 986 MiB (8%)
Title : DTS 5.1 @ 1536 kbps - AVO Карповский
Language : Russian
Default : No
Forced : No
Audio #4
ID : 5
Format : DTS
Format/Info : Digital Theater Systems
Mode : 16
Format settings, Endianness : Big
Codec ID : A_DTS
Duration : 1h 31mn
Bit rate mode : Constant
Bit rate : 1 509 Kbps
Channel count : 6 channels
Channel positions : Front: L C R, Side: L R, LFE
Sampling rate : 48.0 KHz
Bit depth : 24 bits
Compression mode : Lossy
Stream size : 986 MiB (8%)
Title : DTS 5.1 @ 1536 kbps - Original
Language : English
Default : No
Forced : No
Audio #5
ID : 6
Format : AC-3
Format/Info : Audio Coding 3
Mode extension : CM (complete main)
Format settings, Endianness : Big
Codec ID : A_AC3
Duration : 1h 31mn
Bit rate mode : Constant
Bit rate : 640 Kbps
Channel count : 6 channels
Channel positions : Front: L C R, Side: L R, LFE
Sampling rate : 48.0 KHz
Bit depth : 16 bits
Compression mode : Lossy
Stream size : 418 MiB (3%)
Title : AC3 5.1 @ 640 kbps - Descriptive
Language : English
Default : No
Forced : No
Audio #6
ID : 7
Format : AC-3
Format/Info : Audio Coding 3
Format profile : Dolby Digital
Mode extension : CM (complete main)
Format settings, Endianness : Big
Codec ID : A_AC3
Duration : 1h 31mn
Bit rate mode : Constant
Bit rate : 192 Kbps
Channel count : 2 channels
Channel positions : Front: L R
Sampling rate : 48.0 KHz
Bit depth : 16 bits
Compression mode : Lossy
Stream size : 125 MiB (1%)
Title : AC3 2.0 @ 192 kbps - Commentary
Language : English
Default : No
Forced : No
Text #1
ID : 8
Format : UTF-8
Codec ID : S_TEXT/UTF8
Codec ID/Info : UTF-8 Plain Text
Title : Blu-ray CEE
Language : Russian
Default : No
Forced : No
Text #2
ID : 9
Format : UTF-8
Codec ID : S_TEXT/UTF8
Codec ID/Info : UTF-8 Plain Text
Title : MartinaG
Language : Russian
Default : No
Forced : No
Text #3
ID : 10
Format : UTF-8
Codec ID : S_TEXT/UTF8
Codec ID/Info : UTF-8 Plain Text
Title : Full
Language : English
Default : No
Forced : No
Text #4
ID : 11
Format : UTF-8
Codec ID : S_TEXT/UTF8
Codec ID/Info : UTF-8 Plain Text
Title : SDH
Language : English
Default : No
Forced : No
Text #5
ID : 12
Format : UTF-8
Codec ID : S_TEXT/UTF8
Codec ID/Info : UTF-8 Plain Text
Title : SDH-COLORED
Language : English
Default : No
Forced : No
Text #6
ID : 13
Format : UTF-8
Codec ID : S_TEXT/UTF8
Codec ID/Info : UTF-8 Plain Text
Title : Commentary
Language : English
Default : No
Forced : No
Menu
00:00:00.000 : en:Chapter 1
00:05:10.310 : en:Chapter 2
00:09:46.085 : en:Chapter 3
00:14:24.030 : en:Chapter 4
00:18:34.030 : en:Chapter 5
00:23:14.310 : en:Chapter 6
00:30:38.045 : en:Chapter 7
00:35:34.799 : en:Chapter 8
00:40:36.476 : en:Chapter 9
00:49:43.480 : en:Chapter 10
00:55:24.238 : en:Chapter 11
01:01:35.191 : en:Chapter 12
01:08:35.778 : en:Chapter 13
01:14:05.983 : en:Chapter 14
01:17:24.974 : en:Chapter 15
01:20:36.248 : en:Chapter 16

Скриншоты


[Цитировать]



Показать сообщения:    

Текущее время: 09-Дек 03:08

Часовой пояс: UTC + 3


Вы не можете начинать темы
Вы не можете отвечать на сообщения
Вы не можете редактировать свои сообщения
Вы не можете удалять свои сообщения
Вы не можете голосовать в опросах
Вы не можете прикреплять файлы к сообщениям
Вы не можете скачивать файлы

!ВНИМАНИЕ!
Сайт не предоставляет электронные версии произведений, а занимается лишь коллекционированием и каталогизацией ссылок, присылаемых и публикуемых на форуме нашими читателями. Если вы являетесь правообладателем какого-либо представленного материала и не желаете, чтобы ссылка на него находилась в нашем каталоге, свяжитесь с нами, и мы незамедлительно удалим ее. Файлы для обмена на трекере предоставлены пользователями сайта, и администрация не несет ответственности за их содержание. Просьба не заливать файлы, защищенные авторскими правами, а также файлы нелегального содержания!