[ Сегодня идет свободное скачивание без начисления Download ]


Статистика раздачи
Нет
 
   
 
Top  
 
 
Смертельная битва: Наследие / Mortal Kombat: LegacyСезон 2, эпизод 1 (из 10) Год выпуска: 2013
Страна: США, Канада
Производство: Contradiction Films, Goldtooth Creative, NetherRealm Studios, Warner Bros. Interactive Entertainment (WBIE), Warner Premiere
Жанр: фэнтези, боевик, триллер, криминал
Режиссёр: Кевин Танчароэн
В ролях: Брайан Ти, Марк Дакаскос, Кэри-Хироюки Тагава, Дэвид Ли МакИннис, Каспер ван Дьен, Йен Энтони Дейл, Саманта Джо, Мишель Ли и др.
Перевод: Любительский (многоголосый, закадровый от Alternative Production) + Оригинал
Озвучка: Alternative Production
Субтитры: нет
Описание: В интервью, опубликованном 10 мая 2011 года, Танчароен заявил о своем желании рассказать во втором сезоне предысторию Кабала, а также ввести в сериал Горо.Танчароен также заявил что во втором сезоне будет рассказывать предысторию Кунг Лао и Лю Кэнга, а также ввести в сериал брата Горо — Дюрака. Исходя из стилизованного списка персонажей, в сериале появятся: Кано, Лю Кан (Брайан Ти), Кун Лао (Марк Дакаскос), Рэйден (Дэвид Ли МакИннис), Джонни Кейдж (Каспер ван Дьен), Скорпион (Йен Энтони Дейл), Саб-Зиро, Соня Блэйд, Китана (Саманта Джо), Милена (Мишель Ли), Джакс, Барака, Страйкер (Эрик Джакобас), Шан Цзун (Кэри-Хироюки Тагава), Куан Чи, Ермак (Ким До Нгуен), Кэнси (Дэн Саутворт), Рэйн. Также, в трейлере были мельком замечены Смоук, Сектор и Сайрекс, а также один из шоканов в тигриной шкуре (скорее всего Кинтаро).

Список эпизодов:

Эпизод 1. Episode 1

Качество: WebRip 1080p
Продолжительность: по ~ 00:12:00
Формат: MKV
Видео кодек: h264
Аудио кодек: AC3
Свойства видео: 1920x1080 (16:9), 23.976 fps, 5000 Kbps, 0.101 bit/pixel
Свойства аудио : 48 kHz, AC3, 2 ch, ~256.00 kbps avg
Свойства аудио : 48 kHz, AC3, 2 ch, ~256.00 kbps avg

MediaInfo

Формат                                   : Matroska
Версия формата                           : Version 2
Размер файла                             : 361 Мбайт
Продолжительность                        : 9 м. 10 с.
Общий поток                              : 5500 Кбит/сек
Дата кодирования                         : UTC 2013-09-27 16:09:27
Программа кодирования                    : mkvmerge v5.5.0 ('Healer') built on Apr  6 2012 21:43:24
Библиотека кодирования                   : libebml v1.2.3 + libmatroska v1.3.0
Видео
Идентификатор                            : 1
Формат                                   : AVC
Формат/Информация                        : Advanced Video Codec
Профиль формата                          : [email protected]
Параметр CABAC формата                   : Да
Параметр ReFrames формата                : 2 кадра
Режим смешивания                         : Header stripping
Идентификатор кодека                     : V_MPEG4/ISO/AVC
Продолжительность                        : 9 м. 10 с.
Битрейт                                  : 5000 Кбит/сек
Ширина                                   : 1920 пикселей
Высота                                   : 1080 пикселей
Соотношение сторон                       : 16:9
Режим частоты кадров                     : Постоянный
Частота кадров                           : 23,976 кадра/сек
Цветовое пространство                    : YUV
Субдискретизация насыщенности            : 4:2:0
Битовая глубина                          : 8 бит
Тип развёртки                            : Прогрессивная
Бит/(Пиксели*Кадры)                      : 0.101
Размер потока                            : 320 Мбайт (89%)
Библиотека кодирования                   : x264 core 138 r2345
Настройки программы                      : cabac=1 / ref=2 / deblock=1:0:0 / analyse=0x1:0x131 / me=hex / subme=7 / psy=1 / psy_rd=1.00:0.00 / mixed_ref=0 / me_range=16 / chroma_me=1 / trellis=1 / 8x8dct=0 / cqm=0 / deadzone=21,11 / fast_pskip=1 / chroma_qp_offset=-2 / threads=6 / lookahead_threads=1 / sliced_threads=0 / nr=0 / decimate=1 / interlaced=0 / bluray_compat=0 / constrained_intra=0 / bframes=3 / b_pyramid=0 / b_adapt=1 / b_bias=0 / direct=3 / weightb=1 / open_gop=0 / weightp=2 / keyint=230 / keyint_min=23 / scenecut=40 / intra_refresh=0 / rc_lookahead=40 / rc=abr / mbtree=1 / bitrate=5000 / ratetol=1.0 / qcomp=0.60 / qpmin=10 / qpmax=69 / qpstep=4 / vbv_maxrate=24000 / vbv_bufsize=24000 / nal_hrd=none / ip_ratio=1.40 / aq=1:1.00
Default                                  : Да
Forced                                   : Нет
Аудио #1
Идентификатор                            : 2
Формат                                   : AC-3
Формат/Информация                        : Audio Coding 3
Расширение режима                        : CM (complete main)
Параметр Endianness формата              : Big
Режим смешивания                         : Header stripping
Идентификатор кодека                     : A_AC3
Продолжительность                        : 9 м. 10 с.
Вид битрейта                             : Постоянный
Битрейт                                  : 256 Кбит/сек
Каналы                                   : 2 канала
Расположение каналов                     : Front: L R
Частота                                  : 48,0 КГц
Битовая глубина                          : 16 бит
Метод сжатия                             : С потерями
Размер потока                            : 16,8 Мбайт (5%)
Default                                  : Да
Forced                                   : Нет
Аудио #2
Идентификатор                            : 3
Формат                                   : AC-3
Формат/Информация                        : Audio Coding 3
Расширение режима                        : CM (complete main)
Параметр Endianness формата              : Big
Режим смешивания                         : Header stripping
Идентификатор кодека                     : A_AC3
Продолжительность                        : 9 м. 10 с.
Вид битрейта                             : Постоянный
Битрейт                                  : 256 Кбит/сек
Каналы                                   : 2 канала
Расположение каналов                     : Front: L R
Частота                                  : 48,0 КГц
Битовая глубина                          : 16 бит
Метод сжатия                             : С потерями
Размер потока                            : 16,8 Мбайт (5%)
Default                                  : Нет
Forced                                   : Нет


Последний раз редактировалось: Henkok (2013-09-29 06:47), всего редактировалось 1 раз

[Цитировать]

скриншоты не рабочие!!

[Цитировать]



Показать сообщения:    

Текущее время: 04-Дек 19:22

Часовой пояс: UTC + 3


Вы не можете начинать темы
Вы не можете отвечать на сообщения
Вы не можете редактировать свои сообщения
Вы не можете удалять свои сообщения
Вы не можете голосовать в опросах
Вы не можете прикреплять файлы к сообщениям
Вы не можете скачивать файлы

!ВНИМАНИЕ!
Сайт не предоставляет электронные версии произведений, а занимается лишь коллекционированием и каталогизацией ссылок, присылаемых и публикуемых на форуме нашими читателями. Если вы являетесь правообладателем какого-либо представленного материала и не желаете, чтобы ссылка на него находилась в нашем каталоге, свяжитесь с нами, и мы незамедлительно удалим ее. Файлы для обмена на трекере предоставлены пользователями сайта, и администрация не несет ответственности за их содержание. Просьба не заливать файлы, защищенные авторскими правами, а также файлы нелегального содержания!