[ Сегодня идет свободное скачивание без начисления Download ]


Статистика раздачи
Нет
 
   
 
Top  
 
 
Эффект колибри / Hummingbird
Страна: США, IM Global, Shoebox Films
Жанр: Боевик, триллер
Год выпуска: 2013
Продолжительность: 01:40:02
Перевод: Профессиональный (дублированный)
Cубтитры: нет
Режиссер: Стивен Найт
В ролях: Джейсон Стэйтем, Агата Бузек, Вики МакКлюр, Бенедикт Вонг, Ли Асквит-Коу, Ли Николас Харрис, Крис Коулин, Санти Скинелли, Дэвид Брэдли (III), Шиван Хьюлетт
Описание: Джон Смит - бывший коммандос. Во время выполнения спецзадания в Афганистане, предупреждение о засаде через беспилотник "Колибри" поступило слишком поздно. Вся его группа была уничтожена. Ослеплённый болью утраты, Джон убил столько же первых попавшихся афганцев. Но когда он осознал свой поступок, рассудок его не выдержал. Стая птиц колибри, погибшие товарищи и казнённые им невинные афганцы начали преследовать его в снах и галлюцинациях. Тем не менее, Джон сбежал из госпиталя, сразу растворившись на самом "дне" лондонской жизни. Он не желал выздоравливать, потому что больше никого не хотел убивать. Но оказалось, что голод и поиск ночлега, это лишь малые беды бездомных, их главный ужас - жестокий рэкет, обиравший "до нитки" и безраздельно решавший их право на жизнь. И снова надо мстить. И снова понадобилось Джону его ремесло - совершенное умение убивать...
CЭМПЛ
Качество видео: HDRip
Формат видео: AVI
Видео: XviD, 1691 Кбит/с, 720x304
Аудио: AC-3 at 384 Кбит/сек

MediaInfo

Видео
Идентификатор : 0
Формат : MPEG-4 Visual
Профиль формата : Advanced Simple@L5
Параметр BVOP формата : 2
Параметр QPel формата : Нет
Параметр GMC формата : Без точки перехода
Параметр матрицы формата : Default (MPEG)
Идентификатор кодека : XVID
Идентификатор кодека/Подсказка : XviD
Продолжительность : 1 ч. 40 м.
Битрейт : 1691 Кбит/сек
Ширина : 720 пикселей
Высота : 400 пикселей
Соотношение сторон : 16:9
Частота кадров : 23,976 кадра/сек
Цветовое пространство : YUV
Субдискретизация насыщенности : 4:2:0
Битовая глубина : 8 бит
Тип развёртки : Прогрессивная
Метод сжатия : С потерями
Бит/(Пиксели*Кадры) : 0.245
Размер потока : 1,18 Гбайт (81%)
Библиотека кодирования : XviD 1.2.1 (UTC 2008-12-04)
Аудио
Идентификатор : 1
Формат : AC-3
Формат/Информация : Audio Coding 3
Расширение режима : CM (complete main)
Параметр Endianness формата : Big
Идентификатор кодека : 2000
Продолжительность : 1 ч. 40 м.
Вид битрейта : Постоянный
Битрейт : 384 Кбит/сек
Каналы : 6 каналов
Расположение каналов : Front: L C R, Side: L R, LFE
Частота : 48,0 КГц
Битовая глубина : 16 бит
Метод сжатия : С потерями
Размер потока : 275 Мбайт (18%)
Выравнивание : Разделение по промежуткам
Продолжительность промежутка : 42 мс. (1,00 видеокадр)
Время предзагрузки промежутка : 500 мс.

Скриншоты

[Цитировать]



Показать сообщения:    

Текущее время: 09-Дек 14:39

Часовой пояс: UTC + 3


Вы не можете начинать темы
Вы не можете отвечать на сообщения
Вы не можете редактировать свои сообщения
Вы не можете удалять свои сообщения
Вы не можете голосовать в опросах
Вы не можете прикреплять файлы к сообщениям
Вы не можете скачивать файлы

!ВНИМАНИЕ!
Сайт не предоставляет электронные версии произведений, а занимается лишь коллекционированием и каталогизацией ссылок, присылаемых и публикуемых на форуме нашими читателями. Если вы являетесь правообладателем какого-либо представленного материала и не желаете, чтобы ссылка на него находилась в нашем каталоге, свяжитесь с нами, и мы незамедлительно удалим ее. Файлы для обмена на трекере предоставлены пользователями сайта, и администрация не несет ответственности за их содержание. Просьба не заливать файлы, защищенные авторскими правами, а также файлы нелегального содержания!