[ Сегодня идет свободное скачивание без начисления Download ]


Статистика раздачи
Нет
 
   
 
Top  
 
 
Кунг-фу Панда: Захватывающие легенды / Kung Fu Panda: Legends of Awesomeness Страна: США
Жанр: мультфильм, боевик, комедия, семейный
Продолжительность: 00:21:00
Год выпуска: 2011
Перевод: Профессиональный (дублированный) SDI Media
Русские субтитры: нет
Режиссёр: Джим Шуманн / Jim Schumann, Лютер МакЛорин / Luther McLaurin
Роли озвучивали: Даниил Эльдаров, Ольга Зубкова, Юрий Маляров, Борис Быстров, Диомид Виноградов
Описание: Сериал рассказывает о продолжении приключений Панды По, о том, как он тренируется, защищается, борется, учит и учится, говорит слишком много и выступает в роли нового героя Долины Мира. И теперь, живя вместе с Неистовой Пятеркой, По придется взять на себя много новых обязанностей, ведь он Воин Дракона.
Доп. информация: Первые 2 серии были взяты отсюда (спасибо medvezhonokkkk-у). Большое спасибо afedrenkv-у и Pah'OK-у за запись серий (вообще ). А также сайту Riper.

Все раздачи мультсериала
Качество: HDTVRip Рипы: GSN & CtrlHD
Формат: MKV
Видео: AVC, 1280x720 (16:9), 23,976 fps, H264, 2755 - 4977 kbps
Аудио: AC3, 48kHz, 2 channels, 192 kbps - Дубляж [SDI Media]
Аудио 2: AC3, 48kHz, 6 channels, 384 kbps - ENG [Оригинал]
Субтитры: Нет

Список серий

1.Scorpion's Sting
2.The Princess and the Po
3.Sticky Situation
4.Chain Reaction
5.Fluttering Finger Mindslip
6.Good Croc, Bad Croc
7.Hometown Hero
8.Jailhouse Panda
9.Owl Be Back
10.Bad Po
11.Sight for Sore Eyes
12.Rhino's Revenge
13.Master Ping
14.Ghost of Oogway
15.The Kung Fu Kid
16.Ladies of the Shade
17.Big Bro Po
18.Po Fans Out
19.Challenge Day
20.My Favorite Yao
21.In With the Old
22.Has-been Hero
23.Love Stings
24.Hall of Lame
25.Father Crime
26.Monkey in the Middle

Подробные технические данные

General
Unique ID : 197383440347432019608356608540698146990 (0x947EAAF6D98CD0D080A5E7634B8EF8AE)
Complete name : E:\Kung Fu Panda Legends of Awesomeness HDTV 720p DUB\Kung.Fu.Panda.Legends.of.Awesomeness.S01E04.HDTV.720p.DUB.mkv
Format : Matroska
Format version : Version 2
File size : 771 MiB
Duration : 23mn 35s
Overall bit rate : 4 572 Kbps
Encoded date : UTC 2012-03-01 22:14:04
Writing application : mkvmerge v5.0.1 ('Es ist Sommer') built on Oct 9 2011 11:55:43
Writing library : libebml v1.2.2 + libmatroska v1.3.0
Video
ID : 1
Format : AVC
Format/Info : Advanced Video Codec
Format profile : High@L4.1
Format settings, CABAC : Yes
Format settings, ReFrames : 9 frames
Codec ID : V_MPEG4/ISO/AVC
Duration : 23mn 35s
Bit rate : 3 905 Kbps
Width : 1 280 pixels
Height : 720 pixels
Display aspect ratio : 16:9
Frame rate : 23.976 fps
Color space : YUV
Chroma subsampling : 4:2:0
Bit depth : 8 bits
Scan type : Progressive
Bits/(Pixel*Frame) : 0.177
Stream size : 659 MiB (85%)
Writing library : x264 core 116 r2074 2641b9e
Encoding settings : cabac=1 / ref=9 / deblock=1:1:1 / analyse=0x3:0x113 / me=umh / subme=9 / psy=1 / psy_rd=0.40:0.00 / mixed_ref=1 / me_range=16 / chroma_me=1 / trellis=1 / 8x8dct=1 / cqm=0 / deadzone=21,11 / fast_pskip=1 / chroma_qp_offset=-2 / threads=3 / sliced_threads=0 / nr=0 / decimate=1 / interlaced=0 / bluray_compat=0 / constrained_intra=0 / bframes=7 / b_pyramid=2 / b_adapt=2 / b_bias=0 / direct=3 / weightb=1 / open_gop=0 / weightp=2 / keyint=250 / keyint_min=23 / scenecut=40 / intra_refresh=0 / rc_lookahead=50 / rc=crf / mbtree=1 / crf=15.0 / qcomp=0.60 / qpmin=0 / qpmax=69 / qpstep=4 / ip_ratio=1.40 / aq=1:0.60
Default : No
Forced : No
Audio #1
ID : 2
Format : AC-3
Format/Info : Audio Coding 3
Mode extension : HI (hearing impaired)
Codec ID : A_AC3
Duration : 23mn 35s
Bit rate mode : Constant
Bit rate : 192 Kbps
Channel(s) : 2 channels
Channel positions : Front: L R
Sampling rate : 48.0 KHz
Bit depth : 16 bits
Compression mode : Lossy
Delay relative to video : 10s 550ms
Stream size : 32.4 MiB (4%)
Title : DUB
Language : Russian
Default : Yes
Forced : No
Audio #2
ID : 3
Format : AC-3
Format/Info : Audio Coding 3
Mode extension : CM (complete main)
Codec ID : A_AC3
Duration : 23mn 35s
Bit rate mode : Constant
Bit rate : 384 Kbps
Channel(s) : 6 channels
Channel positions : Front: L C R, Side: L R, LFE
Sampling rate : 48.0 KHz
Bit depth : 16 bits
Compression mode : Lossy
Delay relative to video : 32ms
Stream size : 64.8 MiB (8%)
Title : ENG
Language : English
Default : No
Forced : No

[Цитировать]

Топик был перенесен из форума Другие мультсериалы в форум Зарубежные мультфильмы
Prizr@k



Показать сообщения:    

Текущее время: 09-Дек 01:08

Часовой пояс: UTC + 3


Вы не можете начинать темы
Вы не можете отвечать на сообщения
Вы не можете редактировать свои сообщения
Вы не можете удалять свои сообщения
Вы не можете голосовать в опросах
Вы не можете прикреплять файлы к сообщениям
Вы не можете скачивать файлы

!ВНИМАНИЕ!
Сайт не предоставляет электронные версии произведений, а занимается лишь коллекционированием и каталогизацией ссылок, присылаемых и публикуемых на форуме нашими читателями. Если вы являетесь правообладателем какого-либо представленного материала и не желаете, чтобы ссылка на него находилась в нашем каталоге, свяжитесь с нами, и мы незамедлительно удалим ее. Файлы для обмена на трекере предоставлены пользователями сайта, и администрация не несет ответственности за их содержание. Просьба не заливать файлы, защищенные авторскими правами, а также файлы нелегального содержания!