[ Сегодня идет свободное скачивание без начисления Download ]


Статистика раздачи
Нет
 
   
 
Top  
 
 
Кунг-фу Панда: Захватывающие Легенды
Kung fu Panda: Legends of Awesomeness
Страна: США
Жанр: боевик, комедия, семейный
Продолжительность: 00:23:58
Год выпуска: 2012
Перевод: профессиональный (дублированный) SDI Media
Русские субтитры: нет
Режиссёр: Джим Шуманн / Jim Schumann, Лютер МакЛорин / Luther McLaurin
Роли озвучивали: Мик Вингерт, Макс Кох, Джеймс Си, Амир Талай, Фред Татаскьор, Кэри Уолгрен, Кейт Хиггинс, Джон ДиМаджио, Уоллес Шоун, Саймон Хелберг и др.
Описание: Сериал рассказывает о продолжении приключений Панды По, о том, как он тренируется, защищается, борется, учит и учится, говорит слишком много и выступает в роли нового героя Долины Мира. И теперь, живя вместе с Неистовой Пятеркой, По придется взять на себя много новых обязанностей, ведь он Воин Дракона
Качество: WEB-DLRip
Формат: AVI
Видео: XVID, 720x400, 23.976 fps, 1500 kbps
Аудио: AC3, 48000 Hz, 2ch, 192 kbps
Субтитры: отсутствуют

Список серий

Сезон 2
01. Кунг-фу нянька / Kung Fu Day Care
02. Королевская обуза / Royal Pain
03. По опасней всех / The Most Dangerous Po
04. По, который закричал: "Призрак" / Po Who Cried Ghost
05. Кунг-туфли / Kung Fu Shoes
06. Закадычные враги / Bosom Enemies
07. Выход Дракона / Enter the Dragon
08. Мастер и Панда / Master And The Panda
09. Настоящее время / Present Tense
10. Возвращение Шифу / Shifu's Back
11. Террор Котта / Terror Cotta
12. Духовные сферы учителя Диня / The Spirit Orbs of Master Ding
13. Мальтийский Богомол / The Maltese Mantis
14. Только по приглашениям / Invation Only
15. Полуночный Странник / The Midnight Stranger
16. Догнать Посыльного / Shoot the Messenger
17. История о Тигрице / A Tigress Tale
18. Одинокий Журавль / Crane on a Wire
19. Тайный музей кунг-фу / The Secret Museum of Kung Fu
22. Мама не разрешает заниматься кунг-фу / Mama Told Me Not To Kung Fu
23. Тайный обожатель / Secret Admirer
24. Чилин / Qilin Time
25. Гигант / Huge

Подробные технические данные

C:\Кунг-фу Панда сезон 2 WEB-DLRip Дубляж Nickelodeon\2x01 Kung Fu Day Care.avi General Complete name : C:\Кунг-фу Панда сезон 2 WEB-DLRip Дубляж Nickelodeon\2x01 Kung Fu Day Care.avi Format : AVI Format/Info : Audio Video Interleave File size : 300 MiB Duration : 23mn 56s Overall bit rate : 1 754 Kbps Writing application : VirtualDubModRus 1.5.10.1 (build 2439/release) Writing library : VirtualDubMod build 2439/release Video #0 ID : 0 Format : MPEG-4 Visual Format profile : Advanced Simple@L5 Format settings, BVOP : 2 Format settings, QPel : No Format settings, GMC : No warppoints Format settings, Matrix : Default (H.263) Codec ID : XVID Codec ID/Hint : XviD Duration : 23mn 56s Bit rate : 1 552 Kbps Width : 720 pixels Height : 400 pixels Display aspect ratio : 16:9 Frame rate : 23.976 fps Color space : YUV Chroma subsampling : 4:2:0 Bit depth : 8 bits Scan type : Progressive Compression mode : Lossy Bits/(Pixel*Frame) : 0.225 Stream size : 266 MiB (89%) Writing library : XviD 63 Audio #1 ID : 1 Format : AC-3 Format/Info : Audio Coding 3 Mode extension : CM (complete main) Format settings, Endianness : Big Codec ID : 2000 Duration : 23mn 56s Bit rate mode : Constant Bit rate : 192 Kbps Channel(s) : 2 channels Channel positions : Front: L R Sampling rate : 48.0 KHz Bit depth : 16 bits Compression mode : Lossy Stream size : 32.9 MiB (11%) Alignment : Split accross interleaves Interleave, duration : 42 ms (1.00 video frame) Interleave, preload duration : 500 ms

Скриншоты

[Цитировать]

Топик был перенесен из форума Другие мультсериалы в форум Зарубежные мультфильмы
Prizr@k



Показать сообщения:    

Текущее время: 10-Дек 19:30

Часовой пояс: UTC + 3


Вы не можете начинать темы
Вы не можете отвечать на сообщения
Вы не можете редактировать свои сообщения
Вы не можете удалять свои сообщения
Вы не можете голосовать в опросах
Вы не можете прикреплять файлы к сообщениям
Вы не можете скачивать файлы

!ВНИМАНИЕ!
Сайт не предоставляет электронные версии произведений, а занимается лишь коллекционированием и каталогизацией ссылок, присылаемых и публикуемых на форуме нашими читателями. Если вы являетесь правообладателем какого-либо представленного материала и не желаете, чтобы ссылка на него находилась в нашем каталоге, свяжитесь с нами, и мы незамедлительно удалим ее. Файлы для обмена на трекере предоставлены пользователями сайта, и администрация не несет ответственности за их содержание. Просьба не заливать файлы, защищенные авторскими правами, а также файлы нелегального содержания!