[ Сегодня идет свободное скачивание без начисления Download ]


Статистика раздачи
Нет
 
   
 
Top  
 
 
Стартрек: ВозмездиеStar Trek Into Darkness«Beyond the darkness, lies greatness.»- Страна: США
Жанр: фантастика, боевик, приключения.
Год выпуска: 2013
Продолжительность: 02:12:06-Перевод: Профессиональный (полное дублирование)
Оригинальная аудиодорожка:английский.
Субтитры: русские (Forced),русские,английские,английские (SDH / Color)
Режиссер: Джей Джей Абрамс / J.J. Abrams
В ролях:
Крис Пайн (Kirk), Закари Куинто (Spock), Бенедикт Камбербэтч (Khan), Саймон Пегг (Scotty), Карл Урбан (Bones), Зои Салдана (Uhura), Элис Ив (Carol), Джон Чо (Sulu), Антон Ельчин (Chekov), Питер Уэллер (Marcus), Брюс Гринвуд (Pike), Леонард Нимой (Spock Prime)
Дублёры: Александр Коврижных (Kirk), Пётр Иващенко (Spock), Илья Исаев (Khan), Борис Шувалов (Scotty), Михаил Белякович (Bones), Полина Щербакова (Uhura), Александр Гаврилин (Sulu), Прохор Чеховской (Chekov), Владимир Антоник (Marcus), Владимир Герасимов (Pike), Борис Быстров (Spock Prime), Константин Карасик (Thomas Harewood)-Описание: Вернувшись на Землю, команда корабля «Энтерпрайз» обнаруживает, что деятельность и принципы их организации подорваны изнутри. Флот скован необъяснимым ужасом и бездействует, пока мир все глубже погружается в бездну.
Капитан Кирк берет на себя руководство операцией по поимке злодея, ответственного за этот хаос и способного уничтожить все человечество.
В запутанной игре не на жизнь, а на смерть, любовь и дружба будут принесены в жертву ради единственного, что осталось у Кирка - его команды.-

MPAA: PG-13 - Детям до 13 лет просмотр не желателен-Качество: BDRip-AVC (Star.Trek.Into.Darkness.2013.1080p.BluRay.AVC.TrueHD.7.1)
Контейнер: MKV
Видео: AVC, 1140x476 (2.40:1), 3833 kbps, 23,976 fps, 0,295 bpp
Аудио №1: русский / AC3 / 5.1 / 48 kHz / 448 kbps / Дублированный
Аудио №2: английский / AC3 / 5.1 / 48 kHz / 448 kbps / Eng
Субтитры: русские (Forced),русские,английские,английские (SDH / Color)
Навигация по главам: есть
-

Media Info

x264

x264 [info]: frame I:1394 Avg QP:16.02 size: 99362 PSNR Mean Y:47.01 U:49.57 V:49.51 Avg:47.68 Global:47.10
x264 [info]: frame P:51226 Avg QP:19.28 size: 35037 PSNR Mean Y:45.14 U:48.40 V:48.03 Avg:45.91 Global:45.03
x264 [info]: frame B:137413 Avg QP:21.02 size: 13544 PSNR Mean Y:43.93 U:47.34 V:46.92 Avg:44.71 Global:43.89
x264 [info]: consecutive B-frames: 6.1% 7.1% 11.0% 21.9% 14.1% 25.8% 6.7% 2.2% 2.3% 1.4% 1.2%
x264 [info]: mb I I16..4: 14.5% 66.0% 19.4%
x264 [info]: mb P I16..4: 2.0% 17.8% 2.2% P16..4: 27.9% 34.3% 10.9% 0.0% 0.0% skip: 4.9%
x264 [info]: mb B I16..4: 0.2% 1.8% 0.3% B16..8: 36.8% 22.0% 4.2% direct: 7.8% skip:27.0% L0:42.6% L1:42.9% BI:14.5%
x264 [info]: 8x8 transform intra:79.3% inter:62.8%
x264 [info]: direct mvs spatial:97.8% temporal:2.2%
x264 [info]: coded y,uvDC,uvAC intra: 85.6% 89.8% 76.3% inter: 34.6% 41.8% 21.3%
x264 [info]: i16 v,h,dc,p: 23% 15% 9% 54%
x264 [info]: i8 v,h,dc,ddl,ddr,vr,hd,vl,hu: 7% 9% 7% 10% 14% 13% 14% 12% 14%
x264 [info]: i4 v,h,dc,ddl,ddr,vr,hd,vl,hu: 9% 17% 5% 8% 14% 12% 13% 10% 12%
x264 [info]: i8c dc,h,v,p: 41% 22% 16% 21%
x264 [info]: Weighted P-Frames: Y:8.5% UV:6.6%
x264 [info]: ref P L0: 47.2% 11.3% 17.2% 6.2% 5.1% 3.6% 3.5% 2.0% 1.8% 1.6% 0.6% 0.0%
x264 [info]: ref B L0: 71.4% 12.9% 5.7% 3.1% 2.1% 1.8% 2.2% 0.6% 0.2%
x264 [info]: ref B L1: 92.7% 7.3%
x264 [info]: SSIM Mean Y:0.9758138 (16.164db)
x264 [info]: PSNR Mean Y:44.279 U:47.639 V:47.238 Avg:45.054 Global:44.187 kb/s:3829.88
x264 [total]: encoded 190033 frames, 5.53 fps, 3829.88 kb/s
General
Unique ID : 202180210401992380302701403421302588311 (0x981A7DFCBA54132784AF045FC0740397)
Complete name : D:\Star Trek Into Darkness.2013.BDrip-AVC.Froloff777.mkv
Format : Matroska
Format version : Version 4 / Version 2
File size : 4.36 GiB
Duration : 2h 12mn
Overall bit rate : 4 729 Kbps
Encoded date : UTC 2013-09-28 15:19:31
Writing application : mkvmerge v6.1.0 ('Old Devil') built on Mar 4 2013 09:10:42
Writing library : libebml v1.3.0 + libmatroska v1.4.0
Attachment : Yes
Video
ID : 1
Format : AVC
Format/Info : Advanced Video Codec
Format profile : [email protected]
Format settings, CABAC : Yes
Format settings, ReFrames : 10 frames
Codec ID : V_MPEG4/ISO/AVC
Duration : 2h 12mn
Bit rate : 3 833 Kbps
Width : 1 140 pixels
Height : 476 pixels
Display aspect ratio : 2.40:1
Frame rate mode : Constant
Frame rate : 23.976 fps
Color space : YUV
Chroma subsampling : 4:2:0
Bit depth : 8 bits
Scan type : Progressive
Bits/(Pixel*Frame) : 0.295
Stream size : 3.45 GiB (79%)
Title : Star Trek Into Darkness
Writing library : x264 core 130 r2273 b3065e6
Encoding settings : cabac=1 / ref=10 / deblock=1:-3:-2 / analyse=0x3:0x113 / me=umh / subme=11 / psy=1 / psy_rd=1.05:0.10 / mixed_ref=1 / me_range=32 / chroma_me=1 / trellis=2 / 8x8dct=1 / cqm=0 / deadzone=21,11 / fast_pskip=0 / chroma_qp_offset=-3 / threads=6 / lookahead_threads=1 / sliced_threads=0 / nr=0 / decimate=0 / interlaced=0 / bluray_compat=0 / constrained_intra=0 / bframes=10 / b_pyramid=2 / b_adapt=2 / b_bias=0 / direct=3 / weightb=1 / open_gop=0 / weightp=2 / keyint=250 / keyint_min=23 / scenecut=40 / intra_refresh=0 / rc_lookahead=60 / rc=2pass / mbtree=0 / bitrate=3833 / ratetol=1.0 / qcomp=0.60 / qpmin=0 / qpmax=69 / qpstep=4 / cplxblur=20.0 / qblur=0.5 / vbv_maxrate=50000 / vbv_bufsize=62500 / nal_hrd=none / ip_ratio=1.40 / pb_ratio=1.30 / aq=2:0.90
Language : English
Default : Yes
Forced : No
Audio #1
ID : 2
Format : AC-3
Format/Info : Audio Coding 3
Mode extension : CM (complete main)
Format settings, Endianness : Big
Codec ID : A_AC3
Duration : 2h 12mn
Bit rate mode : Constant
Bit rate : 448 Kbps
Channel count : 6 channels
Channel positions : Front: L C R, Side: L R, LFE
Sampling rate : 48.0 KHz
Bit depth : 16 bits
Compression mode : Lossy
Stream size : 423 MiB (9%)
Title : Дублированный DD 5.1 @ 448 kbps
Language : Russian
Default : Yes
Forced : No
Audio #2
ID : 3
Format : AC-3
Format/Info : Audio Coding 3
Mode extension : CM (complete main)
Format settings, Endianness : Big
Codec ID : A_AC3
Duration : 2h 12mn
Bit rate mode : Constant
Bit rate : 448 Kbps
Channel count : 6 channels
Channel positions : Front: L C R, Side: L R, LFE
Sampling rate : 48.0 KHz
Bit depth : 16 bits
Compression mode : Lossy
Stream size : 423 MiB (9%)
Title : Original | DD 5.1 @ 448 kbps
Language : English
Default : No
Forced : No
Text #1
ID : 4
Format : UTF-8
Codec ID : S_TEXT/UTF8
Codec ID/Info : UTF-8 Plain Text
Title : Forced
Language : Russian
Default : Yes
Forced : No
Text #2
ID : 5
Format : UTF-8
Codec ID : S_TEXT/UTF8
Codec ID/Info : UTF-8 Plain Text
Language : Russian
Default : No
Forced : No
Text #3
ID : 6
Format : UTF-8
Codec ID : S_TEXT/UTF8
Codec ID/Info : UTF-8 Plain Text
Language : English
Default : No
Forced : No
Text #4
ID : 7
Format : UTF-8
Codec ID : S_TEXT/UTF8
Codec ID/Info : UTF-8 Plain Text
Title : SDH / Color
Language : English
Default : No
Forced : No
Menu
00:00:00.000 : en:00:00:00.000
00:10:20.370 : en:00:10:20.370
00:19:21.494 : en:00:19:21.494
00:30:03.969 : en:00:30:03.969
00:40:09.115 : en:00:40:09.115
00:46:05.262 : en:00:46:05.262
00:56:38.228 : en:00:56:38.228
01:06:35.783 : en:01:06:35.783
01:12:55.663 : en:01:12:55.663
01:22:45.752 : en:01:22:45.752
01:30:54.741 : en:01:30:54.741
01:38:36.369 : en:01:38:36.369
01:47:09.548 : en:01:47:09.548
01:54:17.142 : en:01:54:17.142
01:59:20.653 : en:01:59:20.653
02:03:18.308 : en:02:03:18.308

[Цитировать]



Показать сообщения:    

Текущее время: 06-Дек 22:58

Часовой пояс: UTC + 3


Вы не можете начинать темы
Вы не можете отвечать на сообщения
Вы не можете редактировать свои сообщения
Вы не можете удалять свои сообщения
Вы не можете голосовать в опросах
Вы не можете прикреплять файлы к сообщениям
Вы не можете скачивать файлы

!ВНИМАНИЕ!
Сайт не предоставляет электронные версии произведений, а занимается лишь коллекционированием и каталогизацией ссылок, присылаемых и публикуемых на форуме нашими читателями. Если вы являетесь правообладателем какого-либо представленного материала и не желаете, чтобы ссылка на него находилась в нашем каталоге, свяжитесь с нами, и мы незамедлительно удалим ее. Файлы для обмена на трекере предоставлены пользователями сайта, и администрация не несет ответственности за их содержание. Просьба не заливать файлы, защищенные авторскими правами, а также файлы нелегального содержания!