[ Сегодня идет свободное скачивание без начисления Download ]


Статистика раздачи
Нет
 
   
 
Top  
 
 
Копы в юбках / The Heat / Unrated- Страна: США
Жанр: комедия, криминал, боевик, детектив
Год выпуска: 2013
Продолжительность: 02:00:20
Перевод: Любительский (многоголосый закадровый) BaibaKo
Cубтитры: нет-Режиссер: Пол Фиг / Paul Feig
В ролях: Сандра Баллок (Ashburn), Мелисса МакКарти (Mullins), Кэйтлин Олсен (Tatiana), Таран Киллэм (Adam), Томас Ф. Уилсон (Captain Woods), Майкл Рапапорт (Jason Mullins), Демиан Бишир (Hale), Тони Хейл (The John), Билли Барр (Mark Mullins), Энди Бакли (Robin).
Описание: Чопорная агент ФБР не совсем ужилась с сослуживцами, другими словами, они ее просто терпеть не могут. Тут ей поручают вести очень непростое дело с другим копом, она тоже женщина из Бостона, на первый взгляд кажется, что у нее не все в порядке с головой, но поверьте она лучший коп в городе. Вместе они должны выйти на след и поймать русского преступника, за которым давно и безрезультатно гоняется вся полиция. Вся сложность в том, что русский обладает невероятной смекалкой и безграничной фантазией делать дела и не быть замеченным, он просто не предсказуем. Против него выступает такая же непредсказуемая женская логика. Поединок будет "жестоким", интересно кто победит?-Качество видео: HDRip
Формат видео: AVI | Sample
Видео: 720x304 (2.37:1), 23.976 fps, XviD build 73 ~1332 kbps avg, 0.25 bit/pixel
Аудио: 48 kHz, AC3 Dolby Digital, 3/2 (L,C,R,l,r) + LFE ch, ~384 kbps

Скриншоты

Медиаинфо

Format : AVI
Format/Info : Audio Video Interleave
File size : 1.45 GiB
Duration : 2h 0mn
Overall bit rate : 1 726 Kbps
Writing application : VirtualDubMod 1.5.10.2 (build 2540/release)
Writing library : VirtualDubMod build 2540/release
Video
ID : 0
Format : MPEG-4 Visual
Format profile : Advanced Simple@L5
Format settings, BVOP : Yes
Format settings, QPel : No
Format settings, GMC : No warppoints
Format settings, Matrix : Custom
Codec ID : XVID
Codec ID/Hint : XviD
Duration : 2h 0mn
Bit rate : 1 333 Kbps
Width : 720 pixels
Height : 304 pixels
Display aspect ratio : 2.35:1
Frame rate : 23.976 fps
Color space : YUV
Chroma subsampling : 4:2:0
Bit depth : 8 bits
Scan type : Progressive
Bits/(Pixel*Frame) : 0.254
Stream size : 1.12 GiB (77%)
Writing library : XviD 73
Audio
ID : 1
Format : AC-3
Format/Info : Audio Coding 3
Mode extension : CM (complete main)
Codec ID : 2000
Duration : 2h 0mn
Bit rate mode : Constant
Bit rate : 384 Kbps
Channel(s) : 6 channels
Channel positions : Front: L C R, Side: L R, LFE
Sampling rate : 48.0 KHz
Bit depth : 16 bits
Stream size : 331 MiB (22%)
Alignment : Split accross interleaves
Interleave, duration : 42 ms (1.00 video frame)
Interleave, preload duration : 500 ms

[Цитировать]

Топик был перенесен из форума Новинки кинопроката в форум Комедия
Henkok



Показать сообщения:    

Текущее время: 09-Дек 10:45

Часовой пояс: UTC + 3


Вы не можете начинать темы
Вы не можете отвечать на сообщения
Вы не можете редактировать свои сообщения
Вы не можете удалять свои сообщения
Вы не можете голосовать в опросах
Вы не можете прикреплять файлы к сообщениям
Вы не можете скачивать файлы

!ВНИМАНИЕ!
Сайт не предоставляет электронные версии произведений, а занимается лишь коллекционированием и каталогизацией ссылок, присылаемых и публикуемых на форуме нашими читателями. Если вы являетесь правообладателем какого-либо представленного материала и не желаете, чтобы ссылка на него находилась в нашем каталоге, свяжитесь с нами, и мы незамедлительно удалим ее. Файлы для обмена на трекере предоставлены пользователями сайта, и администрация не несет ответственности за их содержание. Просьба не заливать файлы, защищенные авторскими правами, а также файлы нелегального содержания!