[ Today is free to download without increasing Download ]

DL-List and Torrent activity
Всеядные / Omn?voros Год выпуска: 2013
Страна: Испания
Производство: Brutal Box
Жанр: ужасы, триллер
Режиссер: Оскар Рохо / ?scar Rojo
В ролях: Анхель, Фернандо Альбису, Карина Бьёрне, Марио де ла Роса, Marta Flich, Дарио Фриаш, Исмаэль Фричи, Сара Гомез, Эстер Лара, Альберто Джо Ли
Перевод: Любительский (одноголосый)
Субтитры: Отсутствуют
Описание: Герой фильма — журналист Маркос Вела, пишущий для престижных гастрономических журналов. Взявшись за написание статьи про подпольные рестораны он, неожиданно для себя, открывает тайну некоторых из них. Журналист оказывается втянут в историю с богатыми людьми, платящими безумные деньги за возможность попробовать изысканные блюда, приготовленные из человеческой плоти…

Качество: DVDRip
Продолжительность: 01:21:00
Формат: AVI
Видео кодек: XviD
Аудио кодек: MP3
Видео: Xvid 640x272(2.35:1) 30.000 fps 1040 Kbps/sec
Аудио: MP3 44100Hz stereo 192kbps
Премьера (мир): 27 апреля 2013

Media Info

Complete name                  : F:\TORRENTS\Omnivores.2013.avi
Format                         : AVI
Format/Info                    : Audio Video Interleave
File size                      : 757 MiB
Duration                       : 1h 24mn
Overall bit rate               : 1 245 Kbps
ID                             : 0
Format                         : MPEG-4 Visual
Format profile                 : Advanced Simple@L4
Format settings, BVOP          : No
Format settings, QPel          : No
Format settings, GMC           : No warppoints
Format settings, Matrix        : Default (H.263)
Codec ID                       : XVID
Codec ID/Hint                  : XviD
Duration                       : 1h 24mn
Bit rate                       : 1 040 Kbps
Width                          : 640 pixels
Height                         : 272 pixels
Display aspect ratio           : 2.35:1
Frame rate                     : 30.000 fps
Color space                    : YUV
Chroma subsampling             : 4:2:0
Bit depth                      : 8 bits
Scan type                      : Progressive
Compression mode               : Lossy
Bits/(Pixel*Frame)             : 0.199
Stream size                    : 632 MiB (84%)
ID                             : 1
Format                         : MPEG Audio
Format version                 : Version 1
Format profile                 : Layer 3
Codec ID                       : 55
Codec ID/Hint                  : MP3
Duration                       : 1h 24mn
Bit rate mode                  : Constant
Bit rate                       : 192 Kbps
Channel count                  : 2 channels
Sampling rate                  : 44.1 KHz
Compression mode               : Lossy
Stream size                    : 117 MiB (15%)
Alignment                      : Split accross interleaves
Interleave, duration           : 26 ms (0.78 video frame)

Last edited by Хранитель душ on 2013-10-21 06:46; edited 8 times in total


Топик был перенесен из форума Ужасы в форум Недооформленные торренты

Топик был перенесен из форума Недооформленные торренты в форум Ужасы

Display posts:    

Current time is: 21-Oct 19:41

All times are UTC + 3

You cannot post new topics in this forum
You cannot reply to topics in this forum
You cannot edit your posts in this forum
You cannot delete your posts in this forum
You cannot vote in polls in this forum
You cannot attach files in this forum
You cannot download files in this forum

The site does not give electronic versions of products, and is engaged only in a collecting and cataloguing of the references sent and published at a forum by our readers. If you are the legal owner of any submitted material and do not wish that the reference to it was in our catalogue, contact us and we shall immediately remove her. Files for an exchange on tracker are given by users of a site, and the administration does not bear the responsibility for their maintenance. The request to not fill in the files protected by copyrights, and also files of the illegal maintenance!