[ Сегодня идет свободное скачивание без начисления Download ]


Статистика раздачи
Нет
 
   
 
Top  
 
 
Всеядные / Omn?voros Год выпуска: 2013
Страна: Испания
Производство: Brutal Box
Жанр: ужасы, триллер
Режиссер: Оскар Рохо / ?scar Rojo
В ролях: Анхель, Фернандо Альбису, Карина Бьёрне, Марио де ла Роса, Marta Flich, Дарио Фриаш, Исмаэль Фричи, Сара Гомез, Эстер Лара, Альберто Джо Ли
Перевод: Любительский (одноголосый)
Субтитры: Отсутствуют
Описание: Герой фильма — журналист Маркос Вела, пишущий для престижных гастрономических журналов. Взявшись за написание статьи про подпольные рестораны он, неожиданно для себя, открывает тайну некоторых из них. Журналист оказывается втянут в историю с богатыми людьми, платящими безумные деньги за возможность попробовать изысканные блюда, приготовленные из человеческой плоти…

Качество: DVDRip
Продолжительность: 01:21:00
Формат: AVI
Видео кодек: XviD
Аудио кодек: MP3
Видео: Xvid 640x272(2.35:1) 30.000 fps 1040 Kbps/sec
Аудио: MP3 44100Hz stereo 192kbps
Премьера (мир): 27 апреля 2013

Media Info

General
Complete name                  : F:\TORRENTS\Omnivores.2013.avi
Format                         : AVI
Format/Info                    : Audio Video Interleave
File size                      : 757 MiB
Duration                       : 1h 24mn
Overall bit rate               : 1 245 Kbps
Video
ID                             : 0
Format                         : MPEG-4 Visual
Format profile                 : Advanced Simple@L4
Format settings, BVOP          : No
Format settings, QPel          : No
Format settings, GMC           : No warppoints
Format settings, Matrix        : Default (H.263)
Codec ID                       : XVID
Codec ID/Hint                  : XviD
Duration                       : 1h 24mn
Bit rate                       : 1 040 Kbps
Width                          : 640 pixels
Height                         : 272 pixels
Display aspect ratio           : 2.35:1
Frame rate                     : 30.000 fps
Color space                    : YUV
Chroma subsampling             : 4:2:0
Bit depth                      : 8 bits
Scan type                      : Progressive
Compression mode               : Lossy
Bits/(Pixel*Frame)             : 0.199
Stream size                    : 632 MiB (84%)
Audio
ID                             : 1
Format                         : MPEG Audio
Format version                 : Version 1
Format profile                 : Layer 3
Codec ID                       : 55
Codec ID/Hint                  : MP3
Duration                       : 1h 24mn
Bit rate mode                  : Constant
Bit rate                       : 192 Kbps
Channel count                  : 2 channels
Sampling rate                  : 44.1 KHz
Compression mode               : Lossy
Stream size                    : 117 MiB (15%)
Alignment                      : Split accross interleaves
Interleave, duration           : 26 ms (0.78 video frame)


Последний раз редактировалось: Хранитель душ (2013-10-21 06:46), всего редактировалось 8 раз(а)

[Цитировать]

Топик был перенесен из форума Ужасы в форум Недооформленные торренты
Henkok

Топик был перенесен из форума Недооформленные торренты в форум Ужасы
Henkok



Показать сообщения:    

Текущее время: 20-Фев 02:28

Часовой пояс: UTC + 3


Вы не можете начинать темы
Вы не можете отвечать на сообщения
Вы не можете редактировать свои сообщения
Вы не можете удалять свои сообщения
Вы не можете голосовать в опросах
Вы не можете прикреплять файлы к сообщениям
Вы не можете скачивать файлы

!ВНИМАНИЕ!
Сайт не предоставляет электронные версии произведений, а занимается лишь коллекционированием и каталогизацией ссылок, присылаемых и публикуемых на форуме нашими читателями. Если вы являетесь правообладателем какого-либо представленного материала и не желаете, чтобы ссылка на него находилась в нашем каталоге, свяжитесь с нами, и мы незамедлительно удалим ее. Файлы для обмена на трекере предоставлены пользователями сайта, и администрация не несет ответственности за их содержание. Просьба не заливать файлы, защищенные авторскими правами, а также файлы нелегального содержания!