[ Сегодня идет свободное скачивание без начисления Download ]


Статистика раздачи
Нет
 
   
 
Top  
 
 
Информация о фильме
Название: Большая свадьба
Оригинальное название: The Big Wedding
Год выхода: 2013
Жанр: комедия
Режиссер: Джастин Закэм
В ролях: Аманда Сайфред, Роберт Де Ниро, Кэтрин Хейгл, Робин Уильямс, Тофер Грейс, Сьюзен Сарандон, Дайан Китон, Бен Барнс, Кристин Эберсоул, Марк Блукас
О фильме:
История о современной семье, пытающейся пережить выходные свадебного торжества, которые могут обернуться полным крахом для них. К удивлению своих детей и друзей давно разведенные Дон и Элли Гриффин вынуждены притворяться счастливыми ради свадьбы своего приемного сына, после того как его ультраконсервативная биологическая мать неожиданно решает пролететь через пол мира, чтобы принять участие в этом торжестве...

Страна: США
Продолжительность: 01:29:32
Перевод: Профессиональный (дублированный)
Файл
Кодек: H.264
Качество: HDRip Исходник: BDRip 1080p
Видео: 640x356 (852х356 анаморф), ~2.4:1, 1500 Kbps, 23.976 fps
Звук:
Русская дорожка, AAC, 2 канала, 48.0 KHz, 128 Kbps, F L,R
Английская дорожка, AAC, 2 канала, 48.0 KHz, 128 Kbps, F L,R
Субтитры: Английские

iTunes Meta Tags

Media Type: Movie
XID: Apple:vendor_id:2013-tt1931435
Content ID: 642656770
ScreenWriters: Джастин Закэм, Жан-Стефан Брон, Карин Судан
Producers: Энтони Катагас, Клей Пекорин, Ричард Сальваторе
Director: Джастин Закэм
Cast: Аманда Сайфред, Роберт Де Ниро, Кэтрин Хейгл, Робин Уильямс, Тофер Грейс, Сьюзен Сарандон, Дайан Китон, Бен Барнс, Кристин Эберсоул, Марк Блукас
Rating: R
Long Deion: История о современной семье, пытающейся пережить выходные свадебного торжества, которые могут обернуться полным крахом для них. К удивлению своих детей и друзей давно разведенные Дон и Элли Гриффин вынуждены притворяться счастливыми ради свадьбы своего приемного сына, после того как его ультраконсервативная биологическая мать неожиданно решает пролететь через пол мира, чтобы принять участие в этом торжестве…
Deion: История о современной семье, пытающейся пережить выходные свадебного торжества, которые могут обернуться полным крахом для них. К удивлению своих детей и друзей давно разведенные Дон и Элли Гриффин вынуждены притворяться счастливыми ради...
Release Date: 2013-04-25T07:00:00Z
Genre: комедия
Artist: Джастин Закэм
Name: Большая свадьба

MediaInfo

General
Complete name : C:UsersNarekDesktopБольшая свадьба.mp4
Format : MPEG-4
Format profile : Base Media
Codec ID : isom
File size : 1.09 GiB
Duration : 1h 29mn
Overall bit rate mode : Variable
Overall bit rate : 1 742 Kbps
Movie name : Большая свадьба
Performer : Джастин Закэм
Genre : комедия
ContentType : Short Film
Deion : История о современной семье, пытающейся пережить выходные свадебного торжества, которые могут обернуться полным крахом для них. К удивлению своих детей и друзей давно разведенные Дон и Элли Гриффин вынуждены притворяться счастливыми ради...
Recorded date : UTC 2013-04-25 07:00:00
Encoded date : UTC 2013-08-14 12:32:51
Tagged date : UTC 2013-08-15 12:41:08
Cover : Yes
LongDeion : История о современной семье, пытающейся пережить выходные свадебного торжества, которые могут обернуться полным крахом для них. К удивлению своих детей и друзей давно разведенные Дон и Элли Гриффин вынуждены притворяться счастливыми ради свадьбы своего приемного сына, после того как его ультраконсервативная биологическая мать неожиданно решает пролететь через пол мира, чтобы принять участие в этом торжестве…
AppleStoreCatalogID : 642656770
Vendor : Apple:vendor_id:2013-tt1931435
ContentRating : mpaa|R|400|
Video
ID : 1
Format : AVC
Format/Info : Advanced Video Codec
Format profile : Baseline@L3.0
Format settings, CABAC : No
Format settings, ReFrames : 3 frames
Codec ID : avc1
Codec ID/Info : Advanced Video Coding
Duration : 1h 29mn
Bit rate : 1 500 Kbps
Maximum bit rate : 7 111 Kbps
Width : 640 pixels
Height : 356 pixels
Display aspect ratio : 2.40:1
Frame rate mode : Variable
Frame rate : 23.976 fps
Minimum frame rate : 23.810 fps
Maximum frame rate : 24.390 fps
Color space : YUV
Chroma subsampling : 4:2:0
Bit depth : 8 bits
Scan type : Progressive
Bits/(Pixel*Frame) : 0.275
Stream size : 944 MiB (85%)
Writing library : x264 core 130 r2273 b3065e6
Encoding settings : cabac=0 / ref=3 / deblock=1:0:0 / analyse=0x1:0x111 / me=umh / subme=9 / psy=1 / psy_rd=1.00:0.00 / mixed_ref=1 / me_range=16 / chroma_me=1 / trellis=1 / 8x8dct=0 / cqm=0 / deadzone=21,11 / fast_pskip=1 / chroma_qp_offset=-2 / threads=6 / lookahead_threads=1 / sliced_threads=0 / nr=0 / decimate=1 / interlaced=0 / bluray_compat=0 / constrained_intra=0 / bframes=0 / weightp=0 / keyint=240 / keyint_min=24 / scenecut=40 / intra_refresh=0 / rc_lookahead=40 / rc=2pass / mbtree=1 / bitrate=1500 / ratetol=1.0 / qcomp=0.60 / qpmin=0 / qpmax=69 / qpstep=4 / cplxblur=20.0 / qblur=0.5 / vbv_maxrate=5000 / vbv_bufsize=5000 / nal_hrd=none / ip_ratio=1.40 / aq=1:1.00
Encoded date : UTC 2013-08-15 09:26:08
Tagged date : UTC 2013-08-14 12:33:29
Color primaries : BT.709
Transfer characteristics : BT.709
Matrix coefficients : BT.709
Audio #1
ID : 2
Format : AAC
Format/Info : Advanced Audio Codec
Format profile : LC
Codec ID : 40
Duration : 1h 29mn
Bit rate mode : Variable
Bit rate : 128 Kbps
Maximum bit rate : 166 Kbps
Channel(s) : 2 channels
Channel positions : Front: L R
Sampling rate : 48.0 KHz
Compression mode : Lossy
Stream size : 82.0 MiB (7%)
Language : Russian
Encoded date : UTC 2013-08-14 12:33:25
Tagged date : UTC 2013-08-14 12:33:29
Audio #2
ID : 3
Format : AAC
Format/Info : Advanced Audio Codec
Format profile : LC
Codec ID : 40
Duration : 1h 29mn
Bit rate mode : Variable
Bit rate : 128 Kbps
Maximum bit rate : 256 Kbps
Channel(s) : 2 channels
Channel positions : Front: L R
Sampling rate : 48.0 KHz
Compression mode : Lossy
Stream size : 81.7 MiB (7%)
Language : English
Encoded date : UTC 2013-08-14 12:33:27
Tagged date : UTC 2013-08-14 12:33:29
Text
ID : 4
Format : Timed Text
Muxing mode : sbtl
Codec ID : tx3g
Duration : 1h 22mn
Bit rate mode : Variable
Bit rate : 95 bps
Stream size : 57.2 KiB (0%)
Language : English
Encoded date : UTC 2013-08-14 12:33:29
Tagged date : UTC 2013-08-14 12:33:29
Menu
ID : 5
Codec ID : text
Duration : 1h 29mn
Encoded date : UTC 2013-08-15 12:41:08
Tagged date : UTC 2013-08-15 12:41:08
Bit rate mode : CBR
Duration_LastFrame : -27090

x264 лог

x264 [info]: frame I:1497 Avg QP:14.93 size: 41783 PSNR Mean Y:48.43 U:52.32 V:52.50 Avg:49.25 Global:48.65
x264 [info]: frame P:127324 Avg QP:17.47 size: 7280 PSNR Mean Y:45.99 U:51.88 V:51.93 Avg:46.90 Global:46.05
x264 [info]: mb I I16..4: 13.4% 0.0% 86.6%
x264 [info]: mb P I16..4: 0.4% 0.0% 2.1% P16..4: 42.5% 22.1% 10.4% 0.0% 0.0% skip:22.6%
x264 [info]: coded y,uvDC,uvAC intra: 77.4% 85.0% 64.7% inter: 31.5% 33.6% 7.1%
x264 [info]: i16 v,h,dc,p: 56% 11% 7% 26%
x264 [info]: i4 v,h,dc,ddl,ddr,vr,hd,vl,hu: 31% 5% 4% 9% 11% 13% 9% 11% 7%
x264 [info]: i8c dc,h,v,p: 44% 14% 32% 9%
x264 [info]: ref P L0: 71.9% 15.7% 12.4%
x264 [info]: SSIM Mean Y:0.9871897 (18.924db)
x264 [info]: PSNR Mean Y:46.023 U:51.889 V:51.933 Avg:46.931 Global:46.075 kb/s:1473.34

Скриншоты

[Цитировать]



Показать сообщения:    

Текущее время: 10-Дек 11:56

Часовой пояс: UTC + 3


Вы не можете начинать темы
Вы не можете отвечать на сообщения
Вы не можете редактировать свои сообщения
Вы не можете удалять свои сообщения
Вы не можете голосовать в опросах
Вы не можете прикреплять файлы к сообщениям
Вы не можете скачивать файлы

!ВНИМАНИЕ!
Сайт не предоставляет электронные версии произведений, а занимается лишь коллекционированием и каталогизацией ссылок, присылаемых и публикуемых на форуме нашими читателями. Если вы являетесь правообладателем какого-либо представленного материала и не желаете, чтобы ссылка на него находилась в нашем каталоге, свяжитесь с нами, и мы незамедлительно удалим ее. Файлы для обмена на трекере предоставлены пользователями сайта, и администрация не несет ответственности за их содержание. Просьба не заливать файлы, защищенные авторскими правами, а также файлы нелегального содержания!