[ Сегодня идет свободное скачивание без начисления Download ]


Статистика раздачи
Нет
 
   
 
Top  
 
 

Информация о фильме
Название: Король зомби
Оригинальное название: The Zombie King
Год выхода: 2013
Жанр: Ужасы, комедия
Режиссер: Эйдан Белизейр
В ролях: Эдвард Ферлонг, Кори Фельдман, Джордж МакКласки, Дэвид МакКлелланд, Майкл Гамарано, Ребекка-Клер Эванс, Дженнифер Чиппиндейл, Себ Кастанг, Джон Кэмплинг, Тимоти Оуэн
О фильме:
Сэмюэль Петерс вполне обычный человек, который пытается использовать магию вуду, чтобы вернуть к жизни свою умершую жену. Вскоре он неожиданно сталкивается с Богом зла Калфу, с которым заключает договор об уничтожении преисподней с воцарением хаоса на земле. Взамен он станет Королем Зомби и вернется на землю со своей покойной женой для вечной жизни.

Страна: Великобритания
Студия: Northern Girl Productions, Templeheart Films
Продолжительность: 01:36:06
Перевод: Любительский одноголосый
Файл
Кодек: x264
Качество: BDRip-AVC
Видео: MPEG-4 AVC, 1500 Кбит/с, 1024x436, 23.976 кадр/с
Звук:
1. Русский (АС3, 6 ch, 448 Кбит/с) / Любительский одноголосый (den904, перевод INTERHD и DeadSno)
2. Английский (АС3, 6 ch, 448 Кбит/с)
Субтитры: Немецкие, голландские

MI

Общее
Уникальный идентификатор : 213263198692360312790907138307174234096 (0xA070FF7F8854A77783411A9ADADCF7F0)
Полное имя : Korol.zombi.2013.x264.BDRip(AVC)-MediaClub.mkv
Формат : Matroska
Версия формата : Version 2
Размер файла : 1,61 Гбайт
Продолжительность : 1 ч. 36 м.
Общий поток : 2392 Кбит/сек
Название фильма : Release - MediaClub Rip by == vvmon ==
Дата кодирования : UTC 2013-09-22 16:05:06
Программа кодирования : mkvmerge v5.4.0 ('Piper') built on Mar 10 2012 13:34:39
Библиотека кодирования : libebml v1.2.3 + libmatroska v1.3.0
Видео
Идентификатор : 1
Формат : AVC
Формат/Информация : Advanced Video Codec
Профиль формата : High@L4.1
Параметр CABAC формата : Да
Параметр ReFrames формата : 8 кадров
Идентификатор кодека : V_MPEG4/ISO/AVC
Продолжительность : 1 ч. 36 м.
Битрейт : 1500 Кбит/сек
Ширина : 1024 пикселя
Высота : 436 пикселей
Соотношение сторон : 2,35:1
Режим частоты кадров : Постоянный
Частота кадров : 23,976 кадра/сек
Цветовое пространство : YUV
Субдискретизация насыщенности : 4:2:0
Битовая глубина : 8 бит
Тип развёртки : Прогрессивная
Бит/(Пиксели*Кадры) : 0.140
Размер потока : 998 Мбайт (61%)
Заголовок : Korol.zombi.2013.x264.BDRip(AVC)-MediaClub.mkv
Библиотека кодирования : x264 core 133 r2334 a3ac64b
Настройки программы : cabac=1 / ref=8 / deblock=1:-2:-2 / analyse=0x3:0x133 / me=umh / subme=11 / psy=1 / psy_rd=1.00:0.00 / mixed_ref=1 / me_range=48 / chroma_me=1 / trellis=2 / 8x8dct=1 / cqm=0 / deadzone=21,11 / fast_pskip=0 / chroma_qp_offset=-2 / threads=3 / lookahead_threads=1 / sliced_threads=0 / nr=0 / decimate=0 / interlaced=0 / bluray_compat=0 / constrained_intra=0 / bframes=8 / b_pyramid=2 / b_adapt=2 / b_bias=0 / direct=3 / weightb=1 / open_gop=0 / weightp=2 / keyint=240 / keyint_min=23 / scenecut=40 / intra_refresh=0 / rc=2pass / mbtree=0 / bitrate=1500 / ratetol=1.0 / qcomp=0.60 / qpmin=10 / qpmax=51 / qpstep=4 / cplxblur=20.0 / qblur=0.5 / ip_ratio=1.40 / pb_ratio=1.30 / aq=2:1.00
Язык : English
Default : Да
Forced : Нет
Аудио #1
Идентификатор : 2
Формат : AC-3
Формат/Информация : Audio Coding 3
Расширение режима : CM (complete main)
Параметр Endianness формата : Big
Идентификатор кодека : A_AC3
Продолжительность : 1 ч. 36 м.
Вид битрейта : Постоянный
Битрейт : 448 Кбит/сек
Каналы : 6 каналов
Расположение каналов : Front: L C R, Side: L R, LFE
Частота : 48,0 КГц
Битовая глубина : 16 бит
Метод сжатия : С потерями
Размер потока : 309 Мбайт (19%)
Заголовок : Любительский одноголосый (den904, перевод INTERHD и DeadSno)
Язык : Russian
Default : Да
Forced : Нет
Аудио #2
Идентификатор : 3
Формат : AC-3
Формат/Информация : Audio Coding 3
Расширение режима : CM (complete main)
Параметр Endianness формата : Big
Идентификатор кодека : A_AC3
Продолжительность : 1 ч. 36 м.
Вид битрейта : Постоянный
Битрейт : 448 Кбит/сек
Каналы : 6 каналов
Расположение каналов : Front: L C R, Side: L R, LFE
Частота : 48,0 КГц
Битовая глубина : 16 бит
Метод сжатия : С потерями
Размер потока : 309 Мбайт (19%)
Заголовок : Английский
Язык : English
Default : Нет
Forced : Нет
Текст #1
Идентификатор : 4
Формат : UTF-8
Идентификатор кодека : S_TEXT/UTF8
Идентификатор кодека/Информация : UTF-8 Plain Text
Заголовок : Немецкие
Язык : German
Default : Да
Forced : Нет
Текст #2
Идентификатор : 5
Формат : UTF-8
Идентификатор кодека : S_TEXT/UTF8
Идентификатор кодека/Информация : UTF-8 Plain Text
Заголовок : Голландские
Язык : Dutch
Default : Нет
Forced : Нет
Меню
00:00:00.000 : en:00:00:00.000
00:09:32.655 : en:00:09:32.655
00:16:53.554 : en:00:16:53.554
00:26:05.355 : en:00:26:05.355
00:33:17.454 : en:00:33:17.454
00:40:41.564 : en:00:40:41.564
00:48:08.928 : en:00:48:08.928
00:55:14.186 : en:00:55:14.186
01:03:48.742 : en:01:03:48.742
01:11:16.522 : en:01:11:16.522
01:19:29.932 : en:01:19:29.932
01:29:44.462 : en:01:29:44.462

x264 log

---[Information] [22.09.2013 14:18:05] x264 [info]: frame I:1087 Avg QP:14.73 size: 46801
---[Information] [22.09.2013 14:18:05] x264 [info]: frame P:31800 Avg QP:17.60 size: 15751
---[Information] [22.09.2013 14:18:05] x264 [info]: frame B:105359 Avg QP:19.50 size: 5008

О релизе

• Сохранены оригинальные чаптеры как на Blu-ray
• За работу с русской дорожкой спасибо DeadSno и SCHUMAHER

Скриншоты



[Цитировать]



Показать сообщения:    

Текущее время: 11-Дек 03:11

Часовой пояс: UTC + 3


Вы не можете начинать темы
Вы не можете отвечать на сообщения
Вы не можете редактировать свои сообщения
Вы не можете удалять свои сообщения
Вы не можете голосовать в опросах
Вы не можете прикреплять файлы к сообщениям
Вы не можете скачивать файлы

!ВНИМАНИЕ!
Сайт не предоставляет электронные версии произведений, а занимается лишь коллекционированием и каталогизацией ссылок, присылаемых и публикуемых на форуме нашими читателями. Если вы являетесь правообладателем какого-либо представленного материала и не желаете, чтобы ссылка на него находилась в нашем каталоге, свяжитесь с нами, и мы незамедлительно удалим ее. Файлы для обмена на трекере предоставлены пользователями сайта, и администрация не несет ответственности за их содержание. Просьба не заливать файлы, защищенные авторскими правами, а также файлы нелегального содержания!