[ Сегодня идет свободное скачивание без начисления Download ]


Статистика раздачи
Нет
 
   
 
Top  
 
 
Остров смерти / Black Rock
-
Страна: США, Submarine Entertainment
Жанр: Ужасы, триллер
Год выпуска: 2012
Продолжительность: 01:19:53
Перевод: Профессиональный (двухголосый закадровый)
Субтитры: нет
Оригинальная дорожка: нет
Главы: есть
Режиссер: Кэтрин Аселтон / Katie Aselton
В ролях: Кэтрин Аселтон, Лэйк Белл, Кейт Босворт, Уилл Бовье, Джей Полсон, Анслем Ричардсон, Карл К. Аселтон III, Др. Карл Аселтон, Генри Барронс, Джон Дэвис-Описание: Три подруги детства решают устроить пикник на удаленном острове. Однако незапланированная встреча с агрессивно настроенными ветеранами иракской войны превращает отдых в сущий кошмар.- Сэмпл-Качество видео: BDRip-AVC (энкод L)
Формат видео: MKV
Видео: AVC / High@L4.1 / 1084 x 586 / 2 221 Kbps / 1.85:1
Аудио: Russian: 48 kHz, AC3 Dolby Digital, 3/2 (L,C,R,l,r) + LFE ch, ~384 kbps

Скриншоты



Исходник

Black Rock 2012 1080p Blu-ray AVC DTS-HD MA 5.1-HDWinG

MediaInfo

Общее
Уникальный идентификатор : 229119471272270304278800344776110852161 (0xAC5ECE182F86609C83ECDFAD90854841)
Полное имя : D:25KadrOstrov.Smerti.2012.Bluray.x264.ac3.rus.by.L.mkv
Формат : Matroska
Версия формата : Version 2
Размер файла : 1,45 Гбайт
Продолжительность : 1 ч. 19 м.
Общий поток : 2605 Кбит/сек
Название фильма : Остров смерти / Black Rock [2012] | Рип от L | Unionpeer
Дата кодирования : UTC 2013-07-19 03:23:02
Программа кодирования : mkvmerge v3.2.0 ('Beginnings') built on Feb 12 2010 16:46:17
Библиотека кодирования : libebml v0.7.9 + libmatroska v0.8.1
Видео
Идентификатор : 1
Формат : AVC
Формат/Информация : Advanced Video Codec
Профиль формата : High@L4.1
Параметр CABAC формата : Да
Параметр ReFrames формата : 10 кадров
Идентификатор кодека : V_MPEG4/ISO/AVC
Продолжительность : 1 ч. 19 м.
Битрейт : 2221 Кбит/сек
Ширина : 1084 пикселя
Высота : 586 пикселей
Соотношение сторон : 1,85:1
Режим частоты кадров : Постоянный
Частота кадров : 23,976 кадра/сек
Цветовое пространство : YUV
Субдискретизация насыщенности : 4:2:0
Битовая глубина : 8 бит
Тип развёртки : Прогрессивная
Бит/(Пиксели*Кадры) : 0.146
Размер потока : 1,21 Гбайт (83%)
Библиотека кодирования : x264 core 133 r2334 a3ac64b
Настройки программы : cabac=1 / ref=10 / deblock=1:-2:-1 / analyse=0x3:0x133 / me=umh / subme=10 / psy=1 / psy_rd=1.10:0.10 / mixed_ref=1 / me_range=32 / chroma_me=1 / trellis=2 / 8x8dct=1 / cqm=0 / deadzone=21,11 / fast_pskip=0 / chroma_qp_offset=-4 / threads=6 / lookahead_threads=1 / sliced_threads=0 / nr=0 / decimate=1 / interlaced=0 / bluray_compat=0 / constrained_intra=0 / bframes=8 / b_pyramid=2 / b_adapt=2 / b_bias=0 / direct=3 / weightb=1 / open_gop=0 / weightp=2 / keyint=230 / keyint_min=21 / scenecut=40 / intra_refresh=0 / rc_lookahead=0 / rc=2pass / mbtree=0 / bitrate=2221 / ratetol=1.0 / qcomp=0.70 / qpmin=0 / qpmax=69 / qpstep=4 / cplxblur=20.0 / qblur=0.5 / vbv_maxrate=50000 / vbv_bufsize=62500 / nal_hrd=none / ip_ratio=1.35 / pb_ratio=1.25 / aq=2:0.90
Язык : English
Default : Нет
Forced : Нет
Аудио
Идентификатор : 2
Формат : AC-3
Формат/Информация : Audio Coding 3
Расширение режима : CM (complete main)
Параметр Endianness формата : Big
Идентификатор кодека : A_AC3
Продолжительность : 1 ч. 19 м.
Вид битрейта : Постоянный
Битрейт : 384 Кбит/сек
Каналы : 6 каналов
Расположение каналов : Front: L C R, Side: L R, LFE
Частота : 48,0 КГц
Битовая глубина : 16 бит
Метод сжатия : С потерями
Задержка видео : 31 мс.
Размер потока : 219 Мбайт (15%)
Заголовок : Двухголосый
Язык : Russian
Default : Нет
Forced : Нет
Меню
00:00:00.000 : en:00:00:00.000
00:02:58.387 : en:00:02:58.387
00:06:23.300 : en:00:06:23.300
00:09:28.443 : en:00:09:28.443
00:12:44.764 : en:00:12:44.764
00:17:13.199 : en:00:17:13.199
00:21:48.724 : en:00:21:48.724
00:24:17.498 : en:00:24:17.498
00:26:23.582 : en:00:26:23.582
00:29:22.052 : en:00:29:22.052
00:31:48.949 : en:00:31:48.949
00:33:49.819 : en:00:33:49.819
00:35:49.356 : en:00:35:49.356
00:38:07.452 : en:00:38:07.452
00:40:09.115 : en:00:40:09.115
00:42:41.100 : en:00:42:41.100
00:47:16.292 : en:00:47:16.292
00:50:02.833 : en:00:50:02.833
00:53:22.574 : en:00:53:22.574
00:59:18.221 : en:00:59:18.221
01:03:42.986 : en:01:03:42.986
01:06:21.311 : en:01:06:21.311
01:08:49.125 : en:01:08:49.125
01:15:46.542 : en:01:15:46.542

Log_x264

---[Information] [19.07.2013 3:35:37] x264 [info]: frame I:898 Avg QP:17.14 size: 80556 PSNR Mean Y:47.19 U:51.17 V:50.86 Avg:48.12 Global:46.67
---[Information] [19.07.2013 3:35:37] x264 [info]: frame P:24723 Avg QP:19.62 size: 22753 PSNR Mean Y:46.08 U:50.28 V:50.16 Avg:47.04 Global:45.04
---[Information] [19.07.2013 3:35:37] x264 [info]: frame B:89275 Avg QP:21.59 size: 7785 PSNR Mean Y:45.69 U:50.28 V:50.24 Avg:46.70 Global:44.52
---[Information] [19.07.2013 3:35:37] x264 [info]: consecutive B-frames: 1.8% 1.8% 7.8% 22.4% 19.8% 36.7% 5.1% 2.2% 2.3%

[Цитировать]



Показать сообщения:    

Текущее время: 10-Дек 21:25

Часовой пояс: UTC + 3


Вы не можете начинать темы
Вы не можете отвечать на сообщения
Вы не можете редактировать свои сообщения
Вы не можете удалять свои сообщения
Вы не можете голосовать в опросах
Вы не можете прикреплять файлы к сообщениям
Вы не можете скачивать файлы

!ВНИМАНИЕ!
Сайт не предоставляет электронные версии произведений, а занимается лишь коллекционированием и каталогизацией ссылок, присылаемых и публикуемых на форуме нашими читателями. Если вы являетесь правообладателем какого-либо представленного материала и не желаете, чтобы ссылка на него находилась в нашем каталоге, свяжитесь с нами, и мы незамедлительно удалим ее. Файлы для обмена на трекере предоставлены пользователями сайта, и администрация не несет ответственности за их содержание. Просьба не заливать файлы, защищенные авторскими правами, а также файлы нелегального содержания!