[ Сегодня идет свободное скачивание без начисления Download ]


Статистика раздачи
Нет
 
   
 
Top  
 
 

Информация о фильме
Название: Ведьма войны
Оригинальное название: War Witch / Rebelle
Год выхода: 2012
Жанр: Драма, военный
Режиссер: Ким Нгуйен
В ролях: Рашель Мванза, Ален Лино Мик Эли Бастьен, Серж Каньинда, Мизинга Мвинга, Ральф Проспер, Жан Кабуйя, Дайан Увамахоро, Жупитер Боконжи, Старлет Матата, Алекс Херабо
О фильме:
Двенадцатилетняя Комона мирно жила с родителями в африканской деревушке, пока туда не пришли солдаты повстанческой армии. Они заставили девочку убить своих родителей, после чего увезли ее в военный лагерь. Здесь Комоне приходится испытывать постоянные унижения. И есть только один человек, способный помочь и выслушать – 15-летний мальчик по прозвищу «Колдун». Прошло два года. Беременная Комона хочет забыть прошлое, но призраки родителей не оставляют ее. Для упокоения их душ она решает отправиться в родную деревню...

Страна: Канада
Студия: Item 7, Shen Studi
Продолжительность: 01:26:23
Перевод: Профессиональный многоголосый
Файл
Кодек: MPEG-4 AVC
Качество: HDTVRip (AVC)
Видео: 2200 Кбит/с, 1024x554, 25.000 кадр/с
Звук:
Аудио #1: Русский (АС3, 6 ch, 448 Кбит/с)
Аудио #2: Французский (АС3, 6 ch, 448 Кбит/с)
Семпл

Скриншоты

MI

Общее
Полное имя : Vedma.vojny.2012.x264.HDTVRip(AVC).MediaClub.mkv
Формат : Matroska
Версия формата : Version 2
Размер файла : 1,87 Гбайт
Продолжительность : 1 ч. 26 м.
Общий поток : 3093 Кбит/сек
Дата кодирования : UTC 2013-08-18 14:41:49
Программа кодирования : mkvmerge v5.4.0 ('Piper') built on Mar 10 2012 13:34:39
Библиотека кодирования : libebml v1.2.3 + libmatroska v1.3.0
Видео
Идентификатор : 1
Формат : AVC
Формат/Информация : Advanced Video Codec
Профиль формата : High@L4.1
Параметр CABAC формата : Да
Параметр ReFrames формата : 9 кадров
Идентификатор кодека : V_MPEG4/ISO/AVC
Продолжительность : 1 ч. 26 м.
Битрейт : 2200 Кбит/сек
Ширина : 1024 пикселя
Высота : 554 пикселя
Соотношение сторон : 1,85:1
Режим частоты кадров : Постоянный
Частота кадров : 25,000 кадров/сек
Цветовое пространство : YUV
Субдискретизация насыщенности : 4:2:0
Битовая глубина : 8 бит
Тип развёртки : Прогрессивная
Бит/(Пиксели*Кадры) : 0.155
Размер потока : 1,29 Гбайт (69%)
Библиотека кодирования : x264 core 125 r2208 d9d2288
Настройки программы : cabac=1 / ref=9 / deblock=1:-2:-2 / analyse=0x3:0x133 / me=umh / subme=10 / psy=1 / psy_rd=1.00:0.15 / mixed_ref=1 / me_range=32 / chroma_me=1 / trellis=2 / 8x8dct=1 / cqm=0 / deadzone=21,11 / fast_pskip=0 / chroma_qp_offset=-3 / threads=6 / lookahead_threads=1 / sliced_threads=0 / nr=0 / decimate=0 / interlaced=0 / bluray_compat=0 / constrained_intra=0 / bframes=8 / b_pyramid=2 / b_adapt=2 / b_bias=0 / direct=3 / weightb=1 / open_gop=0 / weightp=2 / keyint=250 / keyint_min=25 / scenecut=40 / intra_refresh=0 / rc=2pass / mbtree=0 / bitrate=2200 / ratetol=1.0 / qcomp=0.60 / qpmin=0 / qpmax=69 / qpstep=4 / cplxblur=20.0 / qblur=0.5 / ip_ratio=1.40 / pb_ratio=1.30 / aq=1:0.80
Default : Да
Forced : Нет
Аудио #1
Идентификатор : 2
Формат : AC-3
Формат/Информация : Audio Coding 3
Расширение режима : CM (complete main)
Параметр Endianness формата : Big
Идентификатор кодека : A_AC3
Продолжительность : 1 ч. 26 м.
Вид битрейта : Постоянный
Битрейт : 448 Кбит/сек
Каналы : 6 каналов
Расположение каналов : Front: L C R, Side: L R, LFE
Частота : 48,0 КГц
Битовая глубина : 16 бит
Метод сжатия : С потерями
Размер потока : 277 Мбайт (14%)
Язык : Russian
Default : Да
Forced : Нет
Аудио #2
Идентификатор : 3
Формат : AC-3
Формат/Информация : Audio Coding 3
Расширение режима : CM (complete main)
Параметр Endianness формата : Big
Идентификатор кодека : A_AC3
Продолжительность : 1 ч. 26 м.
Вид битрейта : Постоянный
Битрейт : 448 Кбит/сек
Каналы : 6 каналов
Расположение каналов : Front: L C R, Side: L R, LFE
Частота : 48,0 КГц
Битовая глубина : 16 бит
Метод сжатия : С потерями
Задержка видео : 20 мс.
Размер потока : 277 Мбайт (14%)
Язык : French
Default : Нет
Forced : Нет

Награды

Оскар, 2013 год
Номинации (1):
Лучший фильм на иностранном языке — «Канада»
Берлинский кинофестиваль, 2012 год
Победитель (2):
Серебряный Медведь за лучшую женскую роль (Рашель Мванза)
Приз экуменического (христианского) жюри - особое упоминание (конкурсная программа)
Номинации (1):
Золотой Медведь

[Цитировать]



Показать сообщения:    

Текущее время: 09-Дек 22:25

Часовой пояс: UTC + 3


Вы не можете начинать темы
Вы не можете отвечать на сообщения
Вы не можете редактировать свои сообщения
Вы не можете удалять свои сообщения
Вы не можете голосовать в опросах
Вы не можете прикреплять файлы к сообщениям
Вы не можете скачивать файлы

!ВНИМАНИЕ!
Сайт не предоставляет электронные версии произведений, а занимается лишь коллекционированием и каталогизацией ссылок, присылаемых и публикуемых на форуме нашими читателями. Если вы являетесь правообладателем какого-либо представленного материала и не желаете, чтобы ссылка на него находилась в нашем каталоге, свяжитесь с нами, и мы незамедлительно удалим ее. Файлы для обмена на трекере предоставлены пользователями сайта, и администрация не несет ответственности за их содержание. Просьба не заливать файлы, защищенные авторскими правами, а также файлы нелегального содержания!