[ Сегодня идет свободное скачивание без начисления Download ]


Статистика раздачи
Нет
 
   
 
Top  
 
 
[font=Georgia]Поймай толстуху, если сможешь / Identity Thief
[font=Georgia]Театральная версия- [font=Georgia]Страна: США
Жанр: комедия, криминал
Год выпуска: 2013
Продолжительность: 01:51:27
Перевод: Профессиональный (дублированный)
Cубтитры: нет
Режиссер: Сет Гордон / Seth Gordon
В ролях: Джейсон Бейтман, Мелисса МакКарти, Джон Фавро, Аманда Пит, Ти-Ай, Генезис Родригез, Моррис Честнат, Джон Чо, Роберт Патрик, Эрик Стоунстрит
Описание: Клерк лишается своей «юридической» личности, потеряв вместе с документами и смысл дальнейшего существования в городе. Но злоумышленники не дремлют, они обнаружили и кредитные карточки, и наличность, и воспользовались паспортом, а нашему герою то и дело приходят счета о том, где он якобы побывал. Отели, дорогие рестораны, покупки… Но самое интересное, что чаще всего он приобретает одежду огромных женских размеров! После того, как бухгалтер из Денвера получает очередной счет о том, что он ел на завтрак лобстеров, он становится более решительным в своих действиях и отправляется на поиски вора. Его удивлению нету предела, когда воришкой размера ХХХL оказывается очень привлекательная женщина…

Качество видео: HDRip
Формат видео: AVI
Видео кодек: XviD
Аудио кодек: AC3
Видео: 688x288 (2.39:1), 23.976 fps, XviD build 50 ~799 kbps avg, 0.17 bit/pixel
Аудио: 48 kHz, MPEG Layer 3, 2 ch, ~128.00 kbps avg- -

Скриншоты

'MI"

D:Мои рипыIdentity.Thief.2013.HDRip.745mb.by_dexter_lex.avi
General
Complete name : D:Мои рипыIdentity.Thief.2013.HDRip.745mb.by_dexter_lex.avi
Format : AVI
Format/Info : Audio Video Interleave
File size : 747 MiB
Duration : 1h 51mn
Overall bit rate : 937 Kbps
Writing application : VirtualDubMod 1.5.10.3 | www.virtualdub-fr.org || (build 2550/release)
Writing library : VirtualDubMod build 2550/release
Video #0
ID : 0
Format : MPEG-4 Visual
Format profile : Advanced Simple@L5
Format settings, BVOP : 1
Format settings, QPel : No
Format settings, GMC : No warppoints
Format settings, Matrix : Custom
Codec ID : XVID
Codec ID/Hint : XviD
Duration : 1h 51mn
Bit rate : 800 Kbps
Width : 688 pixels
Height : 288 pixels
Display aspect ratio : 2.40:1
Frame rate : 23.976 fps
Color space : YUV
Chroma subsampling : 4:2:0
Bit depth : 8 bits
Scan type : Progressive
Compression mode : Lossy
Bits/(Pixel*Frame) : 0.168
Stream size : 638 MiB (85%)
Writing library : XviD 1.2.1 (UTC 2008-12-04)
Audio #1
ID : 1
Format : MPEG Audio
Format version : Version 1
Format profile : Layer 3
Codec ID : 55
Codec ID/Hint : MP3
Duration : 1h 51mn
Bit rate mode : Constant
Bit rate : 128 Kbps
Channel(s) : 2 channels
Sampling rate : 48.0 KHz
Compression mode : Lossy
Stream size : 102 MiB (14%)
Alignment : Aligned on interleaves
Interleave, duration : 42 ms (1.00 video frame)
Interleave, preload duration : 504 ms
Writing library : LAME3.99r
Encoding settings : -m s -V 4 -q 2 -lowpass 17 -b 128

[Цитировать]



Показать сообщения:    

Текущее время: 02-Дек 22:54

Часовой пояс: UTC + 3


Вы не можете начинать темы
Вы не можете отвечать на сообщения
Вы не можете редактировать свои сообщения
Вы не можете удалять свои сообщения
Вы не можете голосовать в опросах
Вы не можете прикреплять файлы к сообщениям
Вы не можете скачивать файлы

!ВНИМАНИЕ!
Сайт не предоставляет электронные версии произведений, а занимается лишь коллекционированием и каталогизацией ссылок, присылаемых и публикуемых на форуме нашими читателями. Если вы являетесь правообладателем какого-либо представленного материала и не желаете, чтобы ссылка на него находилась в нашем каталоге, свяжитесь с нами, и мы незамедлительно удалим ее. Файлы для обмена на трекере предоставлены пользователями сайта, и администрация не несет ответственности за их содержание. Просьба не заливать файлы, защищенные авторскими правами, а также файлы нелегального содержания!