[ Сегодня идет свободное скачивание без начисления Download ]


Статистика раздачи
Нет
 
   
 
Top  
 
 
Переполох на районе / Les Ka?ra

Страна: Франция | Canal+ [fr]
Жанр: Комедия
Год выпуска: 2012
Продолжительность: 01:37:39
Перевод: Профессиональный (дублированный) [Лицензия]
Cубтитры: отсутствуют
Режиссер: Франк Гастамбиде / Franck Gastambide
В ролях: Меди Садун, Франк Гастамбиде, Джиб, Алис Белаиди, Пом Клементьефф, Рамзи Бедиа, Хаким Сид, Исмаэль Си Саване, Аннабель Лангронн, Сисси Дюпарк, Ануар Тубали, Жером Пакватт
Описание: Трое непутевых жителей одного из бедных кварталов Парижа попадают в историю и оказываются в должниках у местного авторитете Ворнера. Срочно нужны бабосы и друзья решают сняться в порнофильме. Лучше бы они этого не делали! Умопомрачительная комедия!

Сэмпл: http://multi-up.com/865309
Качество: HDRip-AVC [BDRip 1080p]
Формат: MKV
Видео кодек: AVC
Аудио кодек: АС3
Видео: 1681 Кбит/сек, 992*422 (2,35:1), в 24,000 кадр/сек, AVC
Аудио: Russian, 448 Кбит/сек, 48,0 КГц, 16 бит, 6 канала(ов), AC-3

MediaInfo

Общее
Уникальный идентификатор : 251100948130685242652388933538539811726 (0xBCE84893E85A3F9DA6465E6B80D6B38E)
Полное имя : K:Переполох на районеPerepoloh_na_rayone_2012_HDRip_AVC.mkv
Формат : Matroska
Размер файла : 1,45 Гбайт
Продолжительность : 1 ч. 37 м.
Общий поток : 2129 Кбит/сек
Название фильма : Les Ka?ra 2012 (Rip by S.T.A.L.K.E.R.2)
Дата кодирования : UTC 2013-05-13 18:07:10
Программа кодирования : mkvmerge v6.1.0 ('Old Devil') built on Mar 2 2013 14:32:37
Библиотека кодирования : libebml v1.3.0 + libmatroska v1.4.0
Видео
Идентификатор : 1
Формат : AVC
Формат/Информация : Advanced Video Codec
Профиль формата : [email protected]
Параметр CABAC формата : Да
Параметр ReFrames формата : 10 кадры
Идентификатор кодека : V_MPEG4/ISO/AVC
Продолжительность : 1 ч. 37 м.
Битрейт : 1681 Кбит/сек
Ширина : 992 пикс.
Высота : 422 пикс.
Соотношение сторон : 2,35:1
Частота кадров : 24,000 кадр/сек
Цветовое пространство : YUV
Подвыборка цветности : 4:2:0
Битовая глубина : 8 бит
Тип развёртки : Прогрессивная
Бит/(Пиксели*Кадры) : 0.167
Размер потока : 1,12 Гбайт (77%)
Библиотека кодирования : x264 core 130 r2273 b3065e6
Настройки программы : cabac=1 / ref=10 / deblock=1:-2:-2 / analyse=0x3:0x133 / me=umh / subme=10 / psy=1 / psy_rd=1.15:0.05 / mixed_ref=1 / me_range=32 / chroma_me=1 / trellis=2 / 8x8dct=1 / cqm=0 / deadzone=21,11 / fast_pskip=1 / chroma_qp_offset=-3 / threads=12 / lookahead_threads=2 / sliced_threads=0 / nr=0 / decimate=0 / interlaced=0 / bluray_compat=0 / constrained_intra=0 / bframes=9 / b_pyramid=2 / b_adapt=2 / b_bias=0 / direct=1 / weightb=1 / open_gop=0 / weightp=2 / keyint=240 / keyint_min=24 / scenecut=40 / intra_refresh=0 / rc_lookahead=40 / rc=2pass / mbtree=1 / bitrate=1681 / ratetol=1.0 / qcomp=0.60 / qpmin=10 / qpmax=51 / qpstep=4 / cplxblur=20.0 / qblur=0.5 / vbv_maxrate=50000 / vbv_bufsize=50000 / nal_hrd=none / ip_ratio=1.40 / aq=1:1.00
Язык : English
Аудио
Идентификатор : 2
Формат : AC-3
Формат/Информация : Audio Coding 3
Расширение режима : CM (complete main)
Идентификатор кодека : A_AC3
Продолжительность : 1 ч. 37 м.
Вид битрейта : Постоянный
Битрейт : 448 Кбит/сек
Канал(ы) : 6 канала(ов)
Расположение каналов : Front: L C R, Side: L R, LFE
Частота : 48,0 КГц
Битовая глубина : 16 бит
Метод сжатия : С потерями
Размер потока : 313 Мбайт (21%)
Заголовок : Russian, AC3
Язык : Russian
Меню
00:00:00.000 : en:00:00:00.000
00:08:48.375 : en:00:08:48.375
00:14:13.458 : en:00:14:13.458
00:23:49.667 : en:00:23:49.667
00:32:31.167 : en:00:32:31.167
00:38:34.375 : en:00:38:34.375
00:49:53.125 : en:00:49:53.125
00:59:13.167 : en:00:59:13.167
01:09:47.625 : en:01:09:47.625
01:15:57.542 : en:01:15:57.542
01:24:42.708 : en:01:24:42.708
01:33:00.208 : en:01:33:00.208

Скриншоты

[Цитировать]



Показать сообщения:    

Текущее время: 05-Дек 17:36

Часовой пояс: UTC + 3


Вы не можете начинать темы
Вы не можете отвечать на сообщения
Вы не можете редактировать свои сообщения
Вы не можете удалять свои сообщения
Вы не можете голосовать в опросах
Вы не можете прикреплять файлы к сообщениям
Вы не можете скачивать файлы

!ВНИМАНИЕ!
Сайт не предоставляет электронные версии произведений, а занимается лишь коллекционированием и каталогизацией ссылок, присылаемых и публикуемых на форуме нашими читателями. Если вы являетесь правообладателем какого-либо представленного материала и не желаете, чтобы ссылка на него находилась в нашем каталоге, свяжитесь с нами, и мы незамедлительно удалим ее. Файлы для обмена на трекере предоставлены пользователями сайта, и администрация не несет ответственности за их содержание. Просьба не заливать файлы, защищенные авторскими правами, а также файлы нелегального содержания!