[ Сегодня идет свободное скачивание без начисления Download ]


Статистика раздачи
Нет
 
   
 
Top  
 
 

Информация о фильме
Название: Последнее изгнание дьявола: Второе пришествие
Оригинальное название: The Last Exorcism Part II
Год выхода: 2013
Жанр: Ужасы, триллер
Режиссер: Эд Гасс-Доннели
В ролях: Эшли Белл, Джулия Гарнер, Спенсер Трит Кларк, Дэвид Дженсен, Тара Риггз, Луис Хертэм, Мьюз Уотсон, Эрика Мишель, Шэрис А. Уильямс, Бояна Бальта
О фильме: Нелл находят в лесу — грязную и напуганную, только что сбежавшую со страшного ритуала. Вся ее семья погибла и девушку отправляют в Новый Орлеан — приют для девочек. Там она попадает под присмотр терапевта Фрэнка Мерле. Жизнь вроде бы налаживается, Нелл влюбляется в местного мальчика, но в самый неподходящий момент демон вновь объявляется и овладевает Нелл. Теперь он хочет от нее нечто большее…

Страна: США, Arcade Pictures
Продолжительность: 01:29:23
Перевод: Любительский (одноголосый) - MartinaG, озвучка Doctor_Joker
Субтитры: Русские, английские
Файл
Кодек: H264
Качество: BDRip (AVC)
Видео: MPEG-4 AVC, 2250 Кбит/с, 1024x424, 23.976 кадр/с
Звук: Русский, английский (AC3, 6 ch, 448 Кбит/с)

MI

Общее
Полное имя : C:Users-DownloadsThe Last Exorcism Part II.2013.x264.BDRip.(AVC).ExKinoRay.mkv
Формат : Matroska
Размер файла : 1,97 Гбайт
Продолжительность : 1 ч. 30 м.
Общий поток : 3120 Кбит/сек
Название фильма : Последнее изгнание дьявола: Второе пришествие. 2013. Rip by: ollan
Дата кодирования : UTC 2013-07-31 14:10:43
Программа кодирования : mkvmerge v5.6.0 ('Kenya Kane') built on May 27 2012 16:44:04
Библиотека кодирования : libebml v1.2.3 + libmatroska v1.3.0
Видео
Идентификатор : 1
Формат : AVC
Формат/Информация : Advanced Video Codec
Профиль формата : [email protected]
Параметр CABAC формата : Да
Параметр ReFrames формата : 9 кадров
Режим смешивания : Container [email protected]
Идентификатор кодека : V_MPEG4/ISO/AVC
Продолжительность : 1 ч. 30 м.
Битрейт : 2162 Кбит/сек
Номинальный битрейт : 2250 Кбит/сек
Ширина : 1024 пикселей
Высота : 424 пикселей
Соотношение сторон : 2,40:1
Частота кадров : 23,976 кадра/сек
Разрешение : 24 бит
Колориметрия : 4:2:0
Тип развёртки : Прогрессивная
Бит/(Пиксели*Кадры) : 0.208
Размер потока : 1,36 Гбайт (69%)
Библиотека кодирования : x264 core 125 r2200 999b753
Настройки программы : cabac=1 / ref=9 / deblock=1:-2:-2 / analyse=0x3:0x133 / me=umh / subme=11 / psy=1 / psy_rd=1.00:0.00 / mixed_ref=1 / me_range=32 / chroma_me=1 / trellis=2 / 8x8dct=1 / cqm=0 / deadzone=21,11 / fast_pskip=0 / chroma_qp_offset=-2 / threads=12 / lookahead_threads=2 / sliced_threads=0 / nr=0 / decimate=0 / interlaced=0 / bluray_compat=0 / constrained_intra=0 / bframes=9 / b_pyramid=2 / b_adapt=1 / b_bias=0 / direct=3 / weightb=1 / open_gop=0 / weightp=2 / keyint=240 / keyint_min=23 / scenecut=40 / intra_refresh=0 / rc_lookahead=80 / rc=2pass / mbtree=1 / bitrate=2250 / ratetol=1.0 / qcomp=0.60 / qpmin=0 / qpmax=69 / qpstep=4 / cplxblur=20.0 / qblur=0.5 / ip_ratio=1.40 / aq=1:1.00
Аудио #1
Идентификатор : 2
Формат : AC-3
Формат/Информация : Audio Coding 3
Идентификатор кодека : A_AC3
Продолжительность : 1 ч. 30 м.
Вид битрейта : Постоянный
Битрейт : 448 Кбит/сек
Каналы : 6 каналов
Расположение каналов : Front: L C R, Surround: L R, LFE
Частота : 48,0 КГц
Размер потока : 290 Мбайт (14%)
Заголовок : Любительский одноголосный (MartinaG)
Язык : Russian
Аудио #2
Идентификатор : 3
Формат : AC-3
Формат/Информация : Audio Coding 3
Идентификатор кодека : A_AC3
Продолжительность : 1 ч. 30 м.
Вид битрейта : Постоянный
Битрейт : 448 Кбит/сек
Каналы : 6 каналов
Расположение каналов : Front: L C R, Surround: L R, LFE
Частота : 48,0 КГц
Размер потока : 290 Мбайт (14%)
Текст #1
Идентификатор : 4
Формат : UTF-8
Идентификатор кодека : S_TEXT/UTF8
Идентификатор кодека/Информация : UTF-8 Plain Text
Язык : Russian
Текст #2
Идентификатор : 5
Формат : UTF-8
Идентификатор кодека : S_TEXT/UTF8
Идентификатор кодека/Информация : UTF-8 Plain Text

Скриншоты



[Цитировать]



Показать сообщения:    

Текущее время: 05-Дек 13:38

Часовой пояс: UTC + 3


Вы не можете начинать темы
Вы не можете отвечать на сообщения
Вы не можете редактировать свои сообщения
Вы не можете удалять свои сообщения
Вы не можете голосовать в опросах
Вы не можете прикреплять файлы к сообщениям
Вы не можете скачивать файлы

!ВНИМАНИЕ!
Сайт не предоставляет электронные версии произведений, а занимается лишь коллекционированием и каталогизацией ссылок, присылаемых и публикуемых на форуме нашими читателями. Если вы являетесь правообладателем какого-либо представленного материала и не желаете, чтобы ссылка на него находилась в нашем каталоге, свяжитесь с нами, и мы незамедлительно удалим ее. Файлы для обмена на трекере предоставлены пользователями сайта, и администрация не несет ответственности за их содержание. Просьба не заливать файлы, защищенные авторскими правами, а также файлы нелегального содержания!