[ Сегодня идет свободное скачивание без начисления Download ]


Статистика раздачи
Нет
 
   
 
Top  
 
 
Информация о фильме
Название: Конец света 2013: Апокалипсис по-голливудски
Оригинальное название: This Is the End
Год выхода: 2013
Жанр: комедия, фэнтези
Режиссер: Сет Роген, Ивэн Голдберг
В ролях: [font=Verdana]Джеймс Франко, Джона Хилл, Сет Роген, Джей Барушель, Дэнни МакБрайд, Крэйг Робинсон, Майкл Сера, Эмма Уотсон, Минди Калинг, Дэвид Крамхолц
[font=Tahoma]О фильме: Джей Барушель приезжает в Лос-Анджелес, чтобы посетить старого друга и коллегу, актера Сета Рогена, который пригласил Барушеля на новоселье, которое организовывает Джеймс Франко. На не очень приличную вечеринку приехали многие знаменитости. Барушелю неудобно среди такого количества людей, он практически не знает лично таких знаменитостей, как: Джона Хилл, Кристофер Минц-Плассе, Майкл Сера, Крейг Робинсон, Эмма Уотсон и Ченнинг Татум. Роген, чтобы немного успокоить друга, сопровождает его в магазин за сигаретами.
В магазине лучи синего света с неба вдруг унесли несколько покупателей. Перепуганные Роген и Барушель бегут в дом Франко на фоне взрывов, автомобильных аварий, а также массового хаоса, но на вечеринке синие лучи никого не тронули. Подвыпившие гости не верят россказням Барушеля и объявляют его сумасшедшим, но через несколько секунд слышат снаружи грохот…


Выпущено: США / Columbia Pictures
Продолжительность: 01:46:41
Озвучивание: Дублированное [Чистый звук]
Файл
Формат: AVI (XviD)
Качество: BDRip [Рип с Blu-Ray]
Видео: 1505 kb/s, 720x304
Аудио: Russian: AC3, 320 kb/s (2 ch) / English: MP3, 128 kb/s (2 ch)

MI

Format : AVI
Format/Info : Audio Video Interleave
File size : 1.47 GiB
Duration : 1h 46mn
Overall bit rate : 1 967 Kbps
Director : 03nazar03
Writing application : VirtualDubMod 1.5.10.3 | www.virtualdub-fr.org || (build 2550/release)
Writing library : VirtualDubMod build 2550/release
Video
ID : 0
Format : MPEG-4 Visual
Format profile : Advanced Simple@L5
Format settings, BVOP : 2
Format settings, QPel : No
Format settings, GMC : No warppoints
Format settings, Matrix : Custom
Codec ID : XVID
Codec ID/Hint : XviD
Duration : 1h 46mn
Bit rate : 1 505 Kbps
Width : 720 pixels
Height : 304 pixels
Display aspect ratio : 2.35:1
Frame rate : 23.976 fps
Color space : YUV
Chroma subsampling : 4:2:0
Bit depth : 8 bits
Scan type : Progressive
Compression mode : Lossy
Bits/(Pixel*Frame) : 0.287
Stream size : 1.12 GiB (77%)
Writing library : XviD 73
Audio #1
ID : 1
Format : AC-3
Format/Info : Audio Coding 3
Mode extension : CM (complete main)
Format settings, Endianness : Big
Codec ID : 2000
Duration : 1h 46mn
Bit rate mode : Constant
Bit rate : 320 Kbps
Channel(s) : 2 channels
Channel positions : Front: L R
Sampling rate : 48.0 KHz
Bit depth : 16 bits
Compression mode : Lossy
Stream size : 244 MiB (16%)
Alignment : Split accross interleaves
Interleave, duration : 42 ms (1.00 video frame)
Interleave, preload duration : 500 ms
Audio #2
ID : 2
Format : MPEG Audio
Format version : Version 1
Format profile : Layer 3
Codec ID : 55
Codec ID/Hint : MP3
Duration : 1h 46mn
Bit rate mode : Constant
Bit rate : 128 Kbps
Channel(s) : 2 channels
Sampling rate : 48.0 KHz
Compression mode : Lossy
Stream size : 97.7 MiB (7%)
Alignment : Aligned on interleaves
Interleave, duration : 42 ms (1.00 video frame)
Interleave, preload duration : 504 ms
Writing library : LAME3.99r
Encoding settings : -m s -V 4 -q 2 -lowpass 17 -b 128

Скриншоты

[Цитировать]

Топик был перенесен из форума Новинки кинопроката в форум Комедия
Henkok



Показать сообщения:    

Текущее время: 09-Дек 06:56

Часовой пояс: UTC + 3


Вы не можете начинать темы
Вы не можете отвечать на сообщения
Вы не можете редактировать свои сообщения
Вы не можете удалять свои сообщения
Вы не можете голосовать в опросах
Вы не можете прикреплять файлы к сообщениям
Вы не можете скачивать файлы

!ВНИМАНИЕ!
Сайт не предоставляет электронные версии произведений, а занимается лишь коллекционированием и каталогизацией ссылок, присылаемых и публикуемых на форуме нашими читателями. Если вы являетесь правообладателем какого-либо представленного материала и не желаете, чтобы ссылка на него находилась в нашем каталоге, свяжитесь с нами, и мы незамедлительно удалим ее. Файлы для обмена на трекере предоставлены пользователями сайта, и администрация не несет ответственности за их содержание. Просьба не заливать файлы, защищенные авторскими правами, а также файлы нелегального содержания!