[ Сегодня идет свободное скачивание без начисления Download ]


Статистика раздачи
Нет
 
   
 
Top  
 
 

Оригинальное название: Сваты
Год выпуска: 2013
Жанр: Семейная комедия
Режиссер: Андрей Яковлев, Эдуард Радзюкевич
В ролях: Фёдор Добронравов, Татьяна Кравченко, Людмила Артемьева, Анна Кошмал, Александр Феклистов, Анна Полищук, Костя Чернокрылюк, Олеся Железняк, Николай Добрынин, Владимир Зельдин, Ольга Аросева, Даниил Белых, Инна Королёва, Эммануил Виторган, Елена Сафонова, Роман Лукьянов, Евгений Капорин, Фёдор Гуринец, Алексей Смолка, Денис Шепотинник, Татьяна Васильева, Мария Кочур, Екатерина Варченко
Описание: В шестом сезоне «Сватов» зрителей снова ждет невероятное количество самых неожиданных приключений полюбившихся героев. Но впервые мы проживем с семьей Будько-Ковалево-Берковичей не только короткие летние каникулы, а целый год. Сваты с внуками успеют и поздравить любимых женщин с 8 марта, и «ухандокаться» на посадочно-поливочной-уборочной, и отправить Евгению учиться в институт, конечно, не забыв при этом разругаться в пух и прах. Поздравить ветеранов с 9 мая, пережить с Митяем все трудности беременности Ларисы. Отметят удачно совпавший с днем Милиции юбилей Ивана. Будько-Ковалево-Берковичи побывают на «Евро-2012», прокатятся на круизном лайнере по Волге, посетят Париж, задержат беглого преступника, спасут урожай для страны, а страну от бюрократии, женят Берковича, побывают в прошлом! И, конечно, встретят Новый Год! Зрители пройдут через семейный тимбилдинг, погрузятся в мистический хоррор, окунутся в мелодраму, испытают на себе все перипетии триллера, проживут производственную драму… И все это приправлено неповторимым сватовским юмором!
Выпущено: Украина, "Студия Квартал-95"
Продолжительность: 16 х ~ 00:48:00
Язык: Русский
Качество: HDTVRip-AVC
Видео: MPEG-4 AVC, ~ 2202 Кбит/с, 1024x576
Аудио rus: AC3, 2 ch, 192 Кбит/с

Инфо

Полное имя : D:Svaty-6Svaty-6.(01.seriya).tahiy.mkv
Формат : Matroska
Версия формата : Version 4 / Version 2
Размер файла : 816 Мбайт
Продолжительность : 47 м.
Общий поток : 2395 Кбит/сек
Название фильма : Сваты (6 сезон) - = Rip by tahiy = -
Дата кодирования : UTC 2013-10-02 16:25:51
Программа кодирования : mkvmerge v6.3.0 ('You can't stop me!') built on Jul 19 2013 16:27:38
Библиотека кодирования : libebml v1.3.0 + libmatroska v1.4.1
Видео
Идентификатор : 1
Формат : AVC
Формат/Информация : Advanced Video Codec
Профиль формата : High@L4.1
Параметр CABAC формата : Да
Параметр ReFrames формата : 8 кадров
Идентификатор кодека : V_MPEG4/ISO/AVC
Продолжительность : 47 м.
Битрейт : 2202 Кбит/сек
Ширина : 1024 пикселя
Высота : 576 пикселей
Соотношение сторон : 16:9
Режим частоты кадров : Постоянный
Частота кадров : 25,000 кадров/сек
Цветовое пространство : YUV
Субдискретизация насыщенности : 4:2:0
Битовая глубина : 8 бит
Тип развёртки : Прогрессивная
Бит/(Пиксели*Кадры) : 0.149
Размер потока : 734 Мбайт (90%)
Заголовок : Сваты (6 сезон) - = Rip by tahiy = -
Библиотека кодирования : x264 core 130 r2273 b3065e6
Настройки программы : cabac=1 / ref=8 / deblock=1:-2:-2 / analyse=0x3:0x113 / me=umh / subme=10 / psy=1 / psy_rd=1.00:0.20 / mixed_ref=1 / me_range=32 / chroma_me=1 / trellis=2 / 8x8dct=1 / cqm=0 / deadzone=21,11 / fast_pskip=0 / chroma_qp_offset=-3 / threads=3 / lookahead_threads=1 / sliced_threads=0 / nr=0 / decimate=0 / interlaced=0 / bluray_compat=0 / constrained_intra=0 / bframes=10 / b_pyramid=2 / b_adapt=2 / b_bias=0 / direct=3 / weightb=1 / open_gop=0 / weightp=2 / keyint=250 / keyint_min=25 / scenecut=40 / intra_refresh=0 / rc_lookahead=40 / rc=2pass / mbtree=0 / bitrate=2202 / ratetol=1.0 / qcomp=0.60 / qpmin=0 / qpmax=69 / qpstep=4 / cplxblur=20.0 / qblur=0.5 / vbv_maxrate=50000 / vbv_bufsize=62500 / nal_hrd=none / ip_ratio=1.40 / pb_ratio=1.30 / aq=1:1.00
Язык : Russian
Default : Да
Forced : Нет
Аудио
Идентификатор : 2
Формат : AC-3
Формат/Информация : Audio Coding 3
Расширение режима : CM (complete main)
Параметр Endianness формата : Big
Идентификатор кодека : A_AC3
Продолжительность : 47 м.
Вид битрейта : Постоянный
Битрейт : 192 Кбит/сек
Каналы : 2 канала
Расположение каналов : Front: L R
Частота : 48,0 КГц
Битовая глубина : 16 бит
Метод сжатия : С потерями
Размер потока : 65,4 Мбайт (8%)
Язык : Russian
Default : Да
Forced : Нет

Скриншоты


[Цитировать]



Показать сообщения:    

Текущее время: 07-Дек 17:29

Часовой пояс: UTC + 3


Вы не можете начинать темы
Вы не можете отвечать на сообщения
Вы не можете редактировать свои сообщения
Вы не можете удалять свои сообщения
Вы не можете голосовать в опросах
Вы не можете прикреплять файлы к сообщениям
Вы не можете скачивать файлы

!ВНИМАНИЕ!
Сайт не предоставляет электронные версии произведений, а занимается лишь коллекционированием и каталогизацией ссылок, присылаемых и публикуемых на форуме нашими читателями. Если вы являетесь правообладателем какого-либо представленного материала и не желаете, чтобы ссылка на него находилась в нашем каталоге, свяжитесь с нами, и мы незамедлительно удалим ее. Файлы для обмена на трекере предоставлены пользователями сайта, и администрация не несет ответственности за их содержание. Просьба не заливать файлы, защищенные авторскими правами, а также файлы нелегального содержания!