[ Сегодня идет свободное скачивание без начисления Download ]


Статистика раздачи
Нет
 
   
 
Top  
 
 
-Доктор Хаус - Второй сезон
HOUSE M.D. - Season Two- Год выхода в эфир: 2005
Страна: США | USA
Жанр: драма
Продолжительность: 24 из 24 эпизодов по ~ 44 минуты
Перевод: Профессиональный (многоголосый, закадровый)
Субтитры: русские, английские (внешние, *.srt)-Режиссер: Деран Сарафян, Дэвид Платт, Фред Гербер и другие...
В ролях: Хью Лори, Лиза Эдельштейн, Роберт Шон Леонард, Джесси Спенсер, Омар Эппс, Дженнифер Моррисон и другие...-Описание:
Небритый «сукин сын», наглый и гениальный врач-диагност с тростью.
Таким предстал перед зрителями герой одноименного сериала – Доктор Хаус. На фоне смертельных недугов пациентов юмор и цинизм доктора Грегори Хауса выглядел просто шокирующим. Так и началось шествие по миру телесериала, где соседствуют смерть и юмор.
«Все врут» - говорит нам с экрана доктор Хаус. Не лукавят, обманывают, а именно врут.
Из уст человека (пусть и выдуманного, существующего на экране и в головах сценаристов), лечащего людей от смертельных болезней, данная фраза звучит просто дико. Согласно уставу профессии врач, спасающий жизни больных, должен любить их, быть добрым, вселять уверенность. А как иначе? Оказывается, иначе – можно!
© Андрей Кравец- -Качество: WEB-DLRip (источник: doc.logan/WEB-DL/720p)
Сэмпл: HOUSE.s02.sample.HDRip.XviD.AC3.-Rock.avi
Формат: AVI
Видео кодек: XviD
Аудио кодек: AC3
Видео: 720x400 (1.80:1), 23.976 fps, ~1970 kbps avg, ~0.28 bit/pixel
Аудио #1: 48 kHz, AC3 Dolby Digital, 5.1 ch, 384 kbps avg |Студия Кравец|
Аудио #2: 48 kHz, AC3 Dolby Digital, 5.1 ch, 384 kbps avg |Оригинал| (отдельно)
Как подключить внешнюю звуковую дорожку к видео?- -

Еще скриншоты, по одному с каждого эпизода

Список серий

2x01. Acceptance2x02. Autopsy2x03. Humpty Dumpty2x04. TB or Not TB2x05. Daddy's Boy2x06. Spin2x07. Hunting2x08. The Mistake2x09. Deception2x10. Failure to Communicate2x11. Need to Know2x12. Distractions2x13. Skin Deep2x14. Sex Kills2x15. Clueless2x16. Safe2x17. All In2x18. Sleeping Dogs Lie2x19. House vs. God2x20. Euphoria (1)2x21. Euphoria (2)2x22. Forever2x23. Who's Your Daddy2x24. No Reason

MEDiA iNFO

GeneralComplete name : HOUSE.s02e02.HDRip.XviD.AC3.-Rock.aviFormat : AVIFormat/Info : Audio Video InterleaveFile size : 745 MiBDuration : 44mn 2sOverall bit rate : 2 364 KbpsWriting application : VirtualDubMod 1.5.10.2 (build 2540/release)Writing library : VirtualDubMod build 2540/release
VideoID : 0Format : MPEG-4 VisualFormat profile : Advanced [email protected] settings, BVOP : YesFormat settings, QPel : NoFormat settings, GMC : No warppointsFormat settings, Matrix : Default (MPEG)Codec ID : XVIDCodec ID/Hint : XviDDuration : 44mn 2sBit rate : 1 971 KbpsWidth : 720 pixelsHeight : 400 pixelsDisplay aspect ratio : 16:9Frame rate : 23.976 fpsResolution : 8 bitsColorimetry : 4:2:0Scan type : ProgressiveBits/(Pixel*Frame) : 0.285Stream size : 621 MiB (83%)Writing library : XviD 1.2.1 (UTC 2008-12-04)
AudioID : 1Format : AC-3Format/Info : Audio Coding 3Codec ID : 2000Duration : 44mn 2sBit rate mode : ConstantBit rate : 384 KbpsChannel(s) : 6 channelsChannel positions : Front: L C R, Side: L R, LFESampling rate : 48.0 KHzStream size : 121 MiB (16%)Alignment : Split accross interleavesInterleave, duration : 42 ms (1.00 video frame)Interleave, preload duration : 500 ms
-Все сезоны в аналогичном качестве:- - Все раздачи сериала-

[Цитировать]



Показать сообщения:    

Текущее время: 05-Дек 23:45

Часовой пояс: UTC + 3


Вы не можете начинать темы
Вы не можете отвечать на сообщения
Вы не можете редактировать свои сообщения
Вы не можете удалять свои сообщения
Вы не можете голосовать в опросах
Вы не можете прикреплять файлы к сообщениям
Вы не можете скачивать файлы

!ВНИМАНИЕ!
Сайт не предоставляет электронные версии произведений, а занимается лишь коллекционированием и каталогизацией ссылок, присылаемых и публикуемых на форуме нашими читателями. Если вы являетесь правообладателем какого-либо представленного материала и не желаете, чтобы ссылка на него находилась в нашем каталоге, свяжитесь с нами, и мы незамедлительно удалим ее. Файлы для обмена на трекере предоставлены пользователями сайта, и администрация не несет ответственности за их содержание. Просьба не заливать файлы, защищенные авторскими правами, а также файлы нелегального содержания!