[ Сегодня идет свободное скачивание без начисления Download ]


Статистика раздачи
Нет
 
   
 
Top  
 
 
Двигай время! / Los ilusionautas Страна: Франция, Перу
Жанр: мультфильм, фэнтези, приключения, семейный
Продолжительность: 01:21:32
Год выпуска: 2012
Перевод: Профессиональный (дублированный)
Русские субтитры: нет
Режиссёр: Эдуардо Шульдт / Eduardo Schuldt
Описание:
Невероятные события потрясают Францию. Все герои знаменитых романов Жюля Верна ожили и, сами того не ведая, несут хаос и разрушения. А всё потому, что новый президент Франции и министр культуры задумали внести в романы великого писателя правки и перепутали там всё. Спасти ситуацию может лишь команда из 4-х одарённых детей, которые отправлены в прошлое, чтобы вернуть все истории в прежнее русло и поместить героев Жюля Верна обратно на страницы книг.

Качество: BDRip 720p
Формат: MKV
Видео: MPEG-4 AVC Video / 5192 kbps / 1280x720 / 23.976 / 16:9 / High Profile 4.1
Аудио: Русский: AC3 / Dolby Digital Audio / 5.1 / 48 kHz / 640 kbps |Дубляж, BluRay|
РАЗДАЧА ОТ:

x264

frame I:1152  Avg QP:14.86  size:135963
frame P:29642 Avg QP:19.39  size: 49125
frame B:86503 Avg QP:22.96  size: 18888
consecutive B-frames:  4.3%  4.5% 14.6% 21.8% 12.6% 37.5%  2.2%  0.8%  0.6%  0.3%  0.2%  0.3%  0.2%

Mediainfo

Общее
Уникальный идентификатор                 : 225227539106112754068056272017954531972 (0xA9713F06144557D6B46477ED92C96A84)
Полное имя                               : D:\Los.ilusionautas.2012.720р.BluRay.Rus.HDCLUB-xmad.mkv
Формат                                   : Matroska
Версия формата                           : Version 2
Размер файла                             : 3,39 Гбайт
Продолжительность                        : 1 ч. 21 м.
Общий поток                              : 5951 Кбит/сек
Название фильма                          : Los.ilusionautas (2012) - Release for HDCLUB
Дата кодирования                         : UTC 2012-07-10 14:24:49
Программа кодирования                    : mkvmerge v5.6.0 ('Kenya Kane') built on May 27 2012 16:44:04
Библиотека кодирования                   : libebml v1.2.3 + libmatroska v1.3.0
Видео
Идентификатор                            : 1
Формат                                   : AVC
Формат/Информация                        : Advanced Video Codec
Профиль формата                          : High@L4.1
Параметр CABAC формата                   : Да
Параметр ReFrames формата                : 9 кадров
Идентификатор кодека                     : V_MPEG4/ISO/AVC
Продолжительность                        : 1 ч. 21 м.
Битрейт                                  : 5192 Кбит/сек
Ширина                                   : 1280 пикселей
Высота                                   : 720 пикселей
Соотношение сторон                       : 16:9
Частота кадров                           : 23,976 кадра/сек
Цветовое пространство                    : YUV
Субдискретизация насыщенности            : 4:2:0
Битовая глубина                          : 8 бит
Тип развёртки                            : Прогрессивная
Бит/(Пиксели*Кадры)                      : 0.235
Размер потока                            : 2,96 Гбайт (87%)
Заголовок                                : Release for HDCLUB
Библиотека кодирования                   : x264 core 125 r2200 999b753
Настройки программы                      : cabac=1 / ref=9 / deblock=1:-3:-3 / analyse=0x3:0x133 / me=esa / subme=11 / psy=1 / psy_rd=1.00:0.00 / mixed_ref=1 / me_range=24 / chroma_me=1 / trellis=2 / 8x8dct=1 / cqm=0 / deadzone=21,11 / fast_pskip=1 / chroma_qp_offset=-2 / threads=12 / lookahead_threads=2 / sliced_threads=0 / nr=0 / decimate=1 / interlaced=0 / bluray_compat=0 / constrained_intra=0 / bframes=12 / b_pyramid=2 / b_adapt=2 / b_bias=0 / direct=3 / weightb=1 / open_gop=0 / weightp=2 / keyint=240 / keyint_min=24 / scenecut=40 / intra_refresh=0 / rc_lookahead=60 / rc=crf / mbtree=1 / crf=18.0 / qcomp=0.60 / qpmin=0 / qpmax=69 / qpstep=4 / ip_ratio=1.40 / aq=1:1.00
Язык                                     : French
Default                                  : Да
Forced                                   : Нет
Основные цвета                           : BT.709-5, BT.1361, IEC 61966-2-4, SMPTE RP177
Характеристики трансфера                 : BT.709-5, BT.1361
Коэффициенты матрицы                     : BT.709-5, BT.1361, IEC 61966-2-4 709, SMPTE RP177
Аудио
Идентификатор                            : 2
Формат                                   : AC-3
Формат/Информация                        : Audio Coding 3
Расширение режима                        : CM (complete main)
Идентификатор кодека                     : A_AC3
Продолжительность                        : 1 ч. 21 м.
Вид битрейта                             : Постоянный
Битрейт                                  : 640 Кбит/сек
Каналы                                   : 6 каналов
Расположение каналов                     : Front: L C R, Side: L R, LFE
Частота                                  : 48,0 КГц
Битовая глубина                          : 16 бит
Метод сжатия                             : С потерями
Размер потока                            : 373 Мбайт (11%)
Заголовок                                : (AC3 5.1 @ 640 kbps - Дублированный, BluRay)
Язык                                     : Russian
Default                                  : Да
Forced                                   : Нет
Меню
00:00:00.000                             : :Chapter 01
00:08:59.830                             : :Chapter 02
00:15:53.285                             : :Chapter 03
00:23:55.642                             : :Chapter 04
00:32:15.558                             : :Chapter 05
00:39:46.842                             : :Chapter 06
00:46:47.179                             : :Chapter 07
00:56:04.069                             : :Chapter 08
01:04:48.301                             : :Chapter 09
01:11:13.310                             : :Chapter 10
01:18:55.439                             : :Chapter 11
01:21:31.595                             : :Chapter 12

Скриншоты

[Цитировать]



Показать сообщения:    

Текущее время: 10-Дек 13:54

Часовой пояс: UTC + 3


Вы не можете начинать темы
Вы не можете отвечать на сообщения
Вы не можете редактировать свои сообщения
Вы не можете удалять свои сообщения
Вы не можете голосовать в опросах
Вы не можете прикреплять файлы к сообщениям
Вы не можете скачивать файлы

!ВНИМАНИЕ!
Сайт не предоставляет электронные версии произведений, а занимается лишь коллекционированием и каталогизацией ссылок, присылаемых и публикуемых на форуме нашими читателями. Если вы являетесь правообладателем какого-либо представленного материала и не желаете, чтобы ссылка на него находилась в нашем каталоге, свяжитесь с нами, и мы незамедлительно удалим ее. Файлы для обмена на трекере предоставлены пользователями сайта, и администрация не несет ответственности за их содержание. Просьба не заливать файлы, защищенные авторскими правами, а также файлы нелегального содержания!