[ Сегодня идет свободное скачивание без начисления Download ]


Статистика раздачи
Нет
 
   
 
Top  
 
 
-Плюс один / +1 / Plus One (2013) WEB-DL-«Этого хотят все»- -Год выпуска:2013
Производство: США / Cinetel Films
Жанр: Триллер, фантастика
Перевод: Профессиональное (многоголосое) [Baibako]
Субтитры: Английские-Дата мировой премьеры: 10 марта 2013
Дата российской премьеры: 17 октября 2013, «West»-Режиссер: Дэннис Илиадис
Продюсер: Тим Перелл, Гай Ботам, Бекки Глупчински
Актеры: Эшли Хиншоу, Риз Уэйкфилд, Натали Холл, Рода Гриффис, Логан Миллер, Марла Малкольм, Меган Хэйес, Ханна Касулка, Крисси Чэмберс, Кайт Джонсон-Описание фильма: Трое друзей из колледжа отправляются на главную вечеринку десятилетия. Каждый ищет там что-то свое: любовь, секс или новые знакомства. Но праздник превращается в хаос, когда по соседству с домом, где все веселятся, падает метеорит.- -Продолжительность: 01:36:12
Качество видео: WEB-DL-Видеокодек: MPEG-4 AVC/H.264
Битрейт видео: ~3890 Кбит/с
Размер кадра: 1280х532
Аудио 1: AC3 5.1, 384 Кбит/сек, 48,0 КГц (Оригинал, английский)
Аудио 2: AC3 5.1, 384 Кбит/сек, 48,0 КГц (Русский)-

MediaInfo

Общее
Уникальный идентификатор : 250027761440062275791262539454923245466 (0xBC1998638514FC759CE62228A015879A)
Полное имя : D:\Мои видеозаписи\(На NNM)\Plus.1.2013.P.WEB-DL.720p_nnm-club.mkv
Формат : Matroska
Версия формата : Version 4 / Version 2
Размер файла : 3,19 Гбайт
Продолжительность : 1 ч. 36 м.
Общий поток : 4753 Кбит/сек
Дата кодирования : UTC 2013-10-29 17:24:10
Программа кодирования : mkvmerge v6.1.0 ('Old Devil') built on Mar 4 2013 09:10:42
Библиотека кодирования : libebml v1.3.0 + libmatroska v1.4.0
Видео
Идентификатор : 1
Формат : AVC
Формат/Информация : Advanced Video Codec
Профиль формата : [email protected]
Параметр CABAC формата : Нет
Параметр ReFrames формата : 2 кадра
Идентификатор кодека : V_MPEG4/ISO/AVC
Продолжительность : 1 ч. 36 м.
Битрейт : 3890 Кбит/сек
Ширина : 1280 пикселей
Высота : 532 пикселя
Соотношение сторон : 2,40:1
Режим частоты кадров : Постоянный
Частота кадров : 23,976 кадра/сек
Цветовое пространство : YUV
Субдискретизация насыщенности : 4:2:0
Битовая глубина : 8 бит
Тип развёртки : Прогрессивная
Бит/(Пиксели*Кадры) : 0.238
Размер потока : 2,61 Гбайт (82%)
Язык : English
Default : Да
Forced : Нет
Основные цвета : BT.709
Характеристики трансфера : BT.709
Коэффициенты матрицы : BT.709
Аудио #1
Идентификатор : 2
Формат : AC-3
Формат/Информация : Audio Coding 3
Расширение режима : CM (complete main)
Параметр Endianness формата : Big
Идентификатор кодека : A_AC3
Продолжительность : 1 ч. 36 м.
Вид битрейта : Постоянный
Битрейт : 384 Кбит/сек
Каналы : 6 каналов
Расположение каналов : Front: L C R, Side: L R, LFE
Частота : 48,0 КГц
Битовая глубина : 16 бит
Метод сжатия : С потерями
Размер потока : 264 Мбайт (8%)
Язык : Russian
Default : Да
Forced : Нет
Аудио #2
Идентификатор : 3
Формат : AC-3
Формат/Информация : Audio Coding 3
Расширение режима : CM (complete main)
Параметр Endianness формата : Big
Идентификатор кодека : A_AC3
Продолжительность : 1 ч. 36 м.
Вид битрейта : Постоянный
Битрейт : 384 Кбит/сек
Каналы : 6 каналов
Расположение каналов : Front: L C R, Side: L R, LFE
Частота : 48,0 КГц
Битовая глубина : 16 бит
Метод сжатия : С потерями
Размер потока : 264 Мбайт (8%)
Язык : English
Default : Нет
Forced : Нет
Текст
Идентификатор : 4
Формат : UTF-8
Идентификатор кодека : S_TEXT/UTF8
Идентификатор кодека/Информация : UTF-8 Plain Text
Язык : English
Default : Нет
Forced : Нет
Меню
00:00:00.000 : en:Chapter 1
00:07:59.000 : en:Chapter 2
00:19:14.000 : en:Chapter 3
00:28:03.000 : en:Chapter 4
00:40:33.000 : en:Chapter 5
00:50:00.000 : en:Chapter 6
01:01:34.000 : en:Chapter 7
01:11:19.000 : en:Chapter 8
01:20:14.000 : en:Chapter 9
01:30:50.000 : en:Chapter 10
-Скриншоты:

-Время раздачи: 24/7

[Цитировать]



Показать сообщения:    

Текущее время: 06-Дек 06:00

Часовой пояс: UTC + 3


Вы не можете начинать темы
Вы не можете отвечать на сообщения
Вы не можете редактировать свои сообщения
Вы не можете удалять свои сообщения
Вы не можете голосовать в опросах
Вы не можете прикреплять файлы к сообщениям
Вы не можете скачивать файлы

!ВНИМАНИЕ!
Сайт не предоставляет электронные версии произведений, а занимается лишь коллекционированием и каталогизацией ссылок, присылаемых и публикуемых на форуме нашими читателями. Если вы являетесь правообладателем какого-либо представленного материала и не желаете, чтобы ссылка на него находилась в нашем каталоге, свяжитесь с нами, и мы незамедлительно удалим ее. Файлы для обмена на трекере предоставлены пользователями сайта, и администрация не несет ответственности за их содержание. Просьба не заливать файлы, защищенные авторскими правами, а также файлы нелегального содержания!