[ Сегодня идет свободное скачивание без начисления Download ]


Статистика раздачи
Нет
 
   
 
Top  
 
 
-Любовь по рецепту / Menu degustacio (2013) WEB-DLRip (2013) WEB-DLRip
«На кухне, как и в любви, все средства хороши»
- Год выпуска: 2013
Производство: Испания | Subotica Entertainment, Eurimages
Жанр: Комедия, Мелодрама
Перевод: Многоголосый закадровый, профессиональный (Лицензия)
Субтитры: Отсутствуют-Дата мировой премьеры: 26 апреля 2013 (Испания)
Дата российской премьеры: 15 августа 2013, «Ракета Релизинг»
Дата выхода DVD релиза: 24 октября 2013, «CD Land»-Режиссер: Роже Гуаль-Продюсер: Дэвид Матаморос, Ифа О’Салливан, Петер Гарде-Актеры: Хан Корнет, Клаудия Бассольс, Висента Н’Донго, Эндрю Тарбет, Того Игава, Фионнула Флэнаган, Стивен Ри, Тимоти Гиббс, Андрес Эррера, Санти Миллан и другие.-Описание фильма:
Прошел год с тех пор как Марк и Рэйчел забронировали столик в одном из лучших ресторанов Испании, расположенном прямо на берегу Средиземного моря. И вот наконец они приглашены! Мало того, день их посещения станет последним днем работы ресторана, который хозяева решили закрыть, чтобы открыть ресторан в Токио. Так что пропустить такое уникальное событие было бы просто преступлением. Но дело в том, что за этот год пара успела расстаться. Марк остался работать в Барселоне, а Рейчел переехала в Нью-Йорк. Не смотря на это, они все же решают встретиться друг с другом вновь, всего на один вечер, который станет самым невероятным и незабываемым не только для них, но и для других гостей ресторана.-
Продолжительность: 01:27:26
Качество видео: WEB-DLRip
Видеокодек: Xvid
Битрейт видео: ~1775 Мбит/сек
Размер кадра: 720 x 304 (2.368) at 24.000 fps
Аудиокодек: AC3 5.1
Битрейт аудио: 448 Кбит/сек, 48,0 КГц

Трейлер / Ролик

[youtube]http://www.youtube.com/v/kfqrbSIryLQ&fs=1[/youtube]

MediaInfo:

Полное имя                               : G:\Фильмы 2013\Любовь по рецепту  Menu degustacio (2013) WEB-DLRip\Lubov.po.receptu.2013.P.WEBDLRip1400Mb.avi
Формат                                   : AVI
Формат/Информация                        : Audio Video Interleave
Размер файла                             : 1,36 Гбайт
Продолжительность                        : 1 ч. 27 м.
Общий поток                              : 2233 Кбит/сек
Название фильма                          : Lubov.po.receptu.2013.P.WEBDLRip
Жанр                                     : Comedy/Romance
Программа кодирования                    : VirtualDubMod 1.5.10.2 (build 2540/release)
Формат оригинала/Имя                     : Movie
Правообладатель                          : http://intercinema.net
Видео
Идентификатор                            : 0
Формат                                   : MPEG-4 Visual
Профиль формата                          : Advanced Simple@L5
Параметр BVOP формата                    : 1
Параметр QPel формата                    : Нет
Параметр GMC формата                     : Без точки перехода
Параметр матрицы формата                 : Default (H.263)
Идентификатор кодека                     : XVID
Идентификатор кодека/Подсказка           : XviD
Продолжительность                        : 1 ч. 27 м.
Битрейт                                  : 1775 Кбит/сек
Ширина                                   : 720 пикселей
Высота                                   : 304 пикселя
Соотношение сторон                       : 2,35:1
Частота кадров                           : 24,000 кадра/сек
Цветовое пространство                    : YUV
Субдискретизация насыщенности            : 4:2:0
Битовая глубина                          : 8 бит
Тип развёртки                            : Прогрессивная
Метод сжатия                             : С потерями
Бит/(Пиксели*Кадры)                      : 0.338
Размер потока                            : 1,08 Гбайт (80%)
Библиотека кодирования                   : XviD 73
Аудио
Идентификатор                            : 1
Формат                                   : AC-3
Формат/Информация                        : Audio Coding 3
Расширение режима                        : CM (complete main)
Параметр Endianness формата              : Big
Идентификатор кодека                     : 2000
Продолжительность                        : 1 ч. 27 м.
Вид битрейта                             : Постоянный
Битрейт                                  : 448 Кбит/сек
Каналы                                   : 6 каналов
Расположение каналов                     : Front: L C R, Side: L R, LFE
Частота                                  : 48,0 КГц
Битовая глубина                          : 16 бит
Метод сжатия                             : С потерями
Размер потока                            : 280 Мбайт (20%)
Выравнивание                             : Разделение по промежуткам
Продолжительность промежутка             : 42  мс. (1,00 видеокадр)
Время предзагрузки промежутка            : 500  мс.
Скриншоты:




[Цитировать]

Топик был перенесен из форума Новинки кинопроката в форум Комедия
Henkok



Показать сообщения:    

Текущее время: 09-Дек 01:10

Часовой пояс: UTC + 3


Вы не можете начинать темы
Вы не можете отвечать на сообщения
Вы не можете редактировать свои сообщения
Вы не можете удалять свои сообщения
Вы не можете голосовать в опросах
Вы не можете прикреплять файлы к сообщениям
Вы не можете скачивать файлы

!ВНИМАНИЕ!
Сайт не предоставляет электронные версии произведений, а занимается лишь коллекционированием и каталогизацией ссылок, присылаемых и публикуемых на форуме нашими читателями. Если вы являетесь правообладателем какого-либо представленного материала и не желаете, чтобы ссылка на него находилась в нашем каталоге, свяжитесь с нами, и мы незамедлительно удалим ее. Файлы для обмена на трекере предоставлены пользователями сайта, и администрация не несет ответственности за их содержание. Просьба не заливать файлы, защищенные авторскими правами, а также файлы нелегального содержания!