[ Сегодня идет свободное скачивание без начисления Download ]


Статистика раздачи
Нет
 
   
 
Top  
 
 
-Лимб / Haunter (2013) BDRip [H.264]- Год выпуска: 2013
Производство: Канада, Франция, Canadian Audio-Visual Certification Office (CAVCO), Canadian Film or Video Production Tax Credit (CPTC), Copper Heart Entertainment
Жанр: Ужасы, Триллер, Детектив
Перевод: Дублированный (лицензия)
Субтитры: Отсутствуют
Навигация по главам: Есть (13)
Дата мировой премьеры: 9 марта 2013
Дата российской премьеры: 12 сентября 2013, «Вольга», «Премиум Фильм»
Дата выхода DVD релиза: 20 октября 2013, «CP Дистрибуция»
Дата выхода Blu-Ray релиза: 24 октября 2013, «CP Дистрибуция»
Режиссер: Винченцо Натали
Продюсер: Стивен Хобан, Винсент Мэрэвэл, Винченцо Натали
Актеры: Эбигейл Бреслин, Питер Аутербридж, Мишель Нолден, Стивен МакХэтти, Питер ДаКуна, Элинор Цихи, Дэвид Нолл, Саманта Вайнштейн, Дэвид Хьюлетт, Сара Мэннинен
Описание фильма:
Сюжет разворачивается вокруг юной героини Лизы. Дом в котором она живет окутан туманом, семья не выходит из дома и живет монотонной жизнью. Но в скором времени, в доме начинает происходить череда странных и даже пугающих, для героини, событий, которые приведут ее к разгадке страшной тайны.

Продолжительность: 01:36:54
Качество видео: BDRip-AVC
Видеокодек: MPEG-4 AVC/H.264
Битрейт видео: ~1709 kb/s
Размер кадра: 1056x594
Аудиокодек: AC3 5.1
Битрейт аудио: 448 kb/s

Сравнение релизов:

[urlhttp://screenshotcomparison.com/comparison/47289=]Сравнение[/url] с Лимб / Haunter (2013) DVDRip [H.264]

MediaInfo:

General
Unique ID                      : 207104623688845799809307627899016365561 (0x9BCEE64EB2BFC13789104B5D3942C5F9)
Complete name                  : Limb.2013.BDRip-AVC.1,45GB.NNM-CLUB.mkv
Format                         : Matroska
Format version                 : Version 4 / Version 2
File size                      : 1.46 GiB
Duration                       : 1h 36mn
Overall bit rate               : 2 157 Kbps
Movie name                     : Release for NNM-CLUB
Encoded date                   : UTC 2013-11-01 05:01:40
Writing application            : mkvmerge v6.5.0 ('Isn't she lovely') built on Oct 20 2013 12:50:05
Writing library                : libebml v1.3.0 + libmatroska v1.4.1
Attachment                     : Yes
Video
ID                             : 1
Format                         : AVC
Format/Info                    : Advanced Video Codec
Format profile                 : [url=mailto:High@L4.1]High@L4.1[/url]
Format settings, CABAC         : Yes
Format settings, ReFrames      : 12 frames
Codec ID                       : V_MPEG4/ISO/AVC
Duration                       : 1h 36mn
Bit rate                       : 1 709 Kbps
Width                          : 1 056 pixels
Height                         : 594 pixels
Display aspect ratio           : 16:9
Frame rate mode                : Constant
Frame rate                     : 24.000 fps
Color space                    : YUV
Chroma subsampling             : 4:2:0
Bit depth                      : 8 bits
Scan type                      : Progressive
Bits/(Pixel*Frame)             : 0.114
Stream size                    : 1.13 GiB (77%)
Title                          : Лимб / Haunter (2013)
Writing library                : x264 core 130 r2273 b3065e6
Encoding settings              : cabac=1 / ref=12 / deblock=1:-2:-2 / analyse=0x3:0x133 / me=umh / subme=11 / psy=1 / psy_rd=1.05:0.00 / mixed_ref=1 / me_range=48 / chroma_me=1 / trellis=2 / 8x8dct=1 / cqm=0 / deadzone=21,11 / fast_pskip=0 / chroma_qp_offset=-2 / threads=9 / lookahead_threads=2 / sliced_threads=0 / nr=0 / decimate=0 / interlaced=0 / bluray_compat=0 / constrained_intra=0 / bframes=13 / b_pyramid=2 / b_adapt=2 / b_bias=0 / direct=3 / weightb=1 / open_gop=0 / weightp=2 / keyint=250 / keyint_min=23 / scenecut=40 / intra_refresh=0 / rc_lookahead=60 / rc=2pass / mbtree=0 / bitrate=1709 / ratetol=1.0 / qcomp=0.70 / qpmin=0 / qpmax=69 / qpstep=4 / cplxblur=20.0 / qblur=0.5 / vbv_maxrate=20000 / vbv_bufsize=25000 / nal_hrd=none / ip_ratio=1.35 / pb_ratio=1.25 / aq=1:0.70
Language                       : English
Default                        : Yes
Forced                         : No
Audio
ID                             : 2
Format                         : AC-3
Format/Info                    : Audio Coding 3
Mode extension                 : CM (complete main)
Format settings, Endianness    : Big
Codec ID                       : A_AC3
Duration                       : 1h 36mn
Bit rate mode                  : Constant
Bit rate                       : 448 Kbps
Channel(s)                     : 6 channels
Channel positions              : Front: L C R, Side: L R, LFE
Sampling rate                  : 48.0 KHz
Bit depth                      : 16 bits
Compression mode               : Lossy
Stream size                    : 310 MiB (21%)
Title                          : Dub | DD 5.1 @ 448 kbps
Language                       : Russian
Default                        : Yes
Forced                         : Yes
Menu
00:00:00.000                   : en:(01)00:00:00:000
00:08:37.583                   : en:(02)00:08:37:583
00:16:48.083                   : en:(03)00:16:48:083
00:24:49.083                   : en:(04)00:24:49:083
00:33:53.500                   : en:(05)00:33:53:500
00:43:45.208                   : en:(06)00:43:45:208
00:53:43.000                   : en:(07)00:53:43:000
01:03:11.375                   : en:(08)01:03:11:375
01:11:31.333                   : en:(09)01:11:31:333
01:19:01.208                   : en:(10)01:19:01:208
01:23:59.875                   : en:(11)01:23:59:875
01:31:29.708                   : en:(12)01:31:29:708
01:36:49.916                   : en:(13)01:36:49:916
-Скриншоты:

-Время раздачи: 24/7 по возможности

[Цитировать]

Топик был перенесен из форума Новинки кинопроката в форум Ужасы
Henkok



Показать сообщения:    

Текущее время: 09-Дек 03:05

Часовой пояс: UTC + 3


Вы не можете начинать темы
Вы не можете отвечать на сообщения
Вы не можете редактировать свои сообщения
Вы не можете удалять свои сообщения
Вы не можете голосовать в опросах
Вы не можете прикреплять файлы к сообщениям
Вы не можете скачивать файлы

!ВНИМАНИЕ!
Сайт не предоставляет электронные версии произведений, а занимается лишь коллекционированием и каталогизацией ссылок, присылаемых и публикуемых на форуме нашими читателями. Если вы являетесь правообладателем какого-либо представленного материала и не желаете, чтобы ссылка на него находилась в нашем каталоге, свяжитесь с нами, и мы незамедлительно удалим ее. Файлы для обмена на трекере предоставлены пользователями сайта, и администрация не несет ответственности за их содержание. Просьба не заливать файлы, защищенные авторскими правами, а также файлы нелегального содержания!