[ Today is free to download without increasing Download ]

DL-List and Torrent activity
-Лимб / Haunter (2013) HDRip- Год выпуска: 2013
Производство: Канада, Франция, Canadian Audio-Visual Certification Office (CAVCO), Canadian Film or Video Production Tax Credit (CPTC), Copper Heart Entertainment
Жанр: Ужасы, Триллер, Детектив
Перевод: Дублированный (лицензия)
Субтитры: Отсутствуют
Дата мировой премьеры: 9 марта 2013
Дата российской премьеры: 12 сентября 2013, «Вольга», «Премиум Фильм»
Дата выхода DVD релиза: 20 октября 2013, «CP Дистрибуция»
Дата выхода Blu-Ray релиза: 24 октября 2013, «CP Дистрибуция»
Режиссер: Винченцо Натали
Продюсер: Стивен Хобан, Винсент Мэрэвэл, Винченцо Натали
Актеры: Эбигейл Бреслин, Питер Аутербридж, Мишель Нолден, Стивен МакХэтти, Питер ДаКуна, Элинор Цихи, Дэвид Нолл, Саманта Вайнштейн, Дэвид Хьюлетт, Сара Мэннинен
Описание фильма:
Сюжет разворачивается вокруг юной героини Лизы. Дом в котором она живет окутан туманом, семья не выходит из дома и живет монотонной жизнью. Но в скором времени, в доме начинает происходить череда странных и даже пугающих, для героини, событий, которые приведут ее к разгадке страшной тайны.

Продолжительность: 01:36:54
Качество видео: HDRip
Видеокодек: XviD
Битрейт видео: 1696 kb/s
Размер кадра: 720x400
Аудиокодек: AC3 5.1
Битрейт аудио: 448 kb/s

Сравнение релизов:

Сравнение с Лимб / Haunter (2013) DVDRip


Complete name                  : Limb.2013.D.HDRip.1,46Gb.NNM-CLUB.avi
Format                         : AVI
Format/Info                    : Audio Video Interleave
File size                      : 1.46 GiB
Duration                       : 1h 36mn
Overall bit rate               : 2 153 Kbps
Writing application            : VirtualDubMod (build 2540/release)
Writing library                : VirtualDubMod build 2540/release
ID                             : 0
Format                         : MPEG-4 Visual
Format profile                 : Advanced Simple@L5
Format settings, BVOP          : Yes
Format settings, QPel          : No
Format settings, GMC           : No warppoints
Format settings, Matrix        : Custom
Codec ID                       : XVID
Codec ID/Hint                  : XviD
Duration                       : 1h 36mn
Bit rate                       : 1 696 Kbps
Width                          : 720 pixels
Height                         : 400 pixels
Display aspect ratio           : 16:9
Frame rate                     : 24.000 fps
Color space                    : YUV
Chroma subsampling             : 4:2:0
Bit depth                      : 8 bits
Scan type                      : Progressive
Compression mode               : Lossy
Bits/(Pixel*Frame)             : 0.245
Stream size                    : 1.15 GiB (79%)
Writing library                : XviD 1.2.1 (UTC 2008-12-04)
ID                             : 1
Format                         : AC-3
Format/Info                    : Audio Coding 3
Mode extension                 : CM (complete main)
Format settings, Endianness    : Big
Codec ID                       : 2000
Duration                       : 1h 36mn
Bit rate mode                  : Constant
Bit rate                       : 448 Kbps
Channel(s)                     : 6 channels
Channel positions              : Front: L C R, Side: L R, LFE
Sampling rate                  : 48.0 KHz
Bit depth                      : 16 bits
Compression mode               : Lossy
Stream size                    : 310 MiB (21%)
Alignment                      : Split accross interleaves
Interleave, duration           : 42 ms (1.00 video frame)
Interleave, preload duration   : 500 ms

-Время раздачи: 24/7 по возможности


Топик был перенесен из форума Новинки кинопроката в форум Ужасы

Display posts:    

Current time is: 21-Oct 23:14

All times are UTC + 3

You cannot post new topics in this forum
You cannot reply to topics in this forum
You cannot edit your posts in this forum
You cannot delete your posts in this forum
You cannot vote in polls in this forum
You cannot attach files in this forum
You cannot download files in this forum

The site does not give electronic versions of products, and is engaged only in a collecting and cataloguing of the references sent and published at a forum by our readers. If you are the legal owner of any submitted material and do not wish that the reference to it was in our catalogue, contact us and we shall immediately remove her. Files for an exchange on tracker are given by users of a site, and the administration does not bear the responsibility for their maintenance. The request to not fill in the files protected by copyrights, and also files of the illegal maintenance!