[ Сегодня идет свободное скачивание без начисления Download ]


Статистика раздачи
Нет
 
   
 
Top  
 
 
-Призрачный патруль / R.I.P.D. (2013) BDRip«Они защищают наш мир от гостей с того света»- Год выпуска: 2013
Производство: США / Universal Pictures, Original Film, Dark Horse Entertainment
Жанр: Фэнтези, Боевик, Комедия, Kриминал
Перевод: Дублированный [iTunes Russia]
Субтитры: Отсутствуют
Дата мировой премьеры: 17 июля 2013
Дата российской премьеры: 18 июля 2013, «UPI»
Дата выхода DVD релиза: 14 ноября 2013, «Двадцатый Век Фокс СНГ»
Дата выхода BLU-RAY релиза: 14 ноября 2013, «Двадцатый Век Фокс СНГ»
Режиссер: Роберт Швентке
Продюсер: Майкл Фоттрел, Нил Х. Мориц, Майк Ричардсон
Актеры: Райан Рейнольдс, Джефф Бриджес, Кевин Бэйкон, Мэри-Луиз Паркер, Стефани Зостак, Роберт Неппер, Мариса Миллер, Джеймс Хонг, Майк О’Мэлли, Девин Рэтрей
Описание фильма:
Детективы из загробного департамента расследуют преступления по ту сторону могилы и гоняются за не в меру ретивой нечистью. Молодой коп, после гибели от руки неизвестного злоумышленника угодивший в мир иной, в обмен на помощь при расследовании собственного убийства обязуется следующие сто лет посвятить службе в R.I.P.D. и, получив в напарники брутального стрелка эпохи вестернов, выходит на борьбу с неупокоившимся злом.-
Рейтинг PG-13 - Детям до 13 лет просмотр не желателен
Возраст 12+ - зрителям, достигшим 12 лет-Продолжительность: 01:35:53
Качество видео: BDRip
Видеокодек: MPEG-4 AVC/H.264
Битрейт видео: ~15,6 Мбит/сек
Размер кадра: 1920x1632
Аудио 1: AC3 5.1, 384 kbps [Русский]
Аудио 2: AC3 5.1, 640 kbps [Английский]-

Media info:

Общее
Уникальный идентификатор : 193239968475790967359967306569958188647 (0x9160AA074E9C87AF9B110A0844DE6667)
Полное имя : D:\Full 3Drip\R.I.P.D_3D.mkv
Формат : Matroska
Версия формата : Version 2
Размер файла : 11,4 Гбайт
Продолжительность : 1 ч. 35 м.
Общий поток : 17,0 Мбит/сек
Название фильма : R.I.P.D_3D_FULL_O/U
Дата кодирования : UTC 2013-10-25 19:42:31
Программа кодирования : mkvmerge v5.7.0 ('The Whirlwind') built on Aug 7 2012 14:11:40
Библиотека кодирования : libebml v1.2.3 + libmatroska v1.3.0
Видео
Идентификатор : 1
Формат : AVC
Формат/Информация : Advanced Video Codec
Профиль формата : High@L5.1
Параметр CABAC формата : Да
Параметр ReFrames формата : 6 кадров
Идентификатор кодека : V_MPEG4/ISO/AVC
Продолжительность : 1 ч. 35 м.
Битрейт : 15,6 Мбит/сек
Ширина : 1920 пикселей
Высота : 1632 пикселя
Соотношение сторон : 1,176
Соотношение сторон в оригинале : 16:9
Режим частоты кадров : Постоянный
Частота кадров : 23,976 кадра/сек
Цветовое пространство : YUV
Субдискретизация насыщенности : 4:2:0
Битовая глубина : 8 бит
Тип развёртки : Прогрессивная
Бит/(Пиксели*Кадры) : 0.208
Размер потока : 10,5 Гбайт (92%)
Заголовок : rip by I/N
Библиотека кодирования : x264 core 128 r2216M 198a7ea
Настройки программы : cabac=1 / ref=6 / deblock=1:-1:-1 / analyse=0x3:0x133 / me=esa / subme=10 / psy=1 / psy_rd=1.00:0.15 / mixed_ref=1 / me_range=24 / chroma_me=1 / trellis=2 / 8x8dct=1 / cqm=0 / deadzone=21,11 / fast_pskip=1 / chroma_qp_offset=-3 / threads=8 / lookahead_threads=1 / sliced_threads=0 / nr=0 / decimate=1 / interlaced=0 / bluray_compat=0 / constrained_intra=0 / bframes=8 / b_pyramid=2 / b_adapt=2 / b_bias=0 / direct=3 / weightb=1 / open_gop=0 / weightp=2 / keyint=230 / keyint_min=23 / scenecut=40 / intra_refresh=0 / rc_lookahead=60 / rc=crf / mbtree=1 / crf=18.0 / qcomp=0.60 / qpmin=0 / qpmax=69 / qpstep=4 / ip_ratio=1.40 / aq=1:1.00
Default : Да
Forced : Нет
Аудио #1
Идентификатор : 2
Формат : AC-3
Формат/Информация : Audio Coding 3
Расширение режима : CM (complete main)
Параметр Endianness формата : Big
Идентификатор кодека : A_AC3
Продолжительность : 1 ч. 35 м.
Вид битрейта : Постоянный
Битрейт : 384 Кбит/сек
Каналы : 6 каналов
Расположение каналов : Front: L C R, Side: L R, LFE
Частота : 48,0 КГц
Битовая глубина : 16 бит
Метод сжатия : С потерями
Задержка видео : 28 мс.
Размер потока : 263 Мбайт (2%)
Заголовок : Дубляж (iTunes)
Язык : Russian
Default : Да
Forced : Да
Аудио #2
Идентификатор : 3
Формат : AC-3
Формат/Информация : Audio Coding 3
Расширение режима : CM (complete main)
Параметр Endianness формата : Big
Идентификатор кодека : A_AC3
Продолжительность : 1 ч. 35 м.
Вид битрейта : Постоянный
Битрейт : 640 Кбит/сек
Каналы : 6 каналов
Расположение каналов : Front: L C R, Side: L R, LFE
Частота : 48,0 КГц
Битовая глубина : 16 бит
Метод сжатия : С потерями
Размер потока : 439 Мбайт (4%)
Заголовок : Original
Язык : English
Default : Нет
Forced : Нет
Меню
00:00:00.000 : en:(01)00:00:00:000
00:03:56.110 : en:(02)00:03:56:110
00:09:12.134 : en:(03)00:09:12:134
00:14:29.577 : en:(04)00:14:29:577
00:17:57.409 : en:(05)00:17:57:409
00:22:29.598 : en:(06)00:22:29:598
00:27:08.501 : en:(07)00:27:08:501
00:33:32.510 : en:(08)00:33:32:510
00:38:45.156 : en:(09)00:38:45:156
00:43:26.645 : en:(10)00:43:26:645
00:46:30.746 : en:(11)00:46:30:746
00:52:03.036 : en:(12)00:52:03:036
00:55:51.097 : en:(13)00:55:51:097
01:02:14.981 : en:(14)01:02:14:981
01:07:00.099 : en:(15)01:07:00:099
01:10:34.688 : en:(16)01:10:34:688
01:13:15.307 : en:(17)01:13:15:307
01:17:51.124 : en:(18)01:17:51:124
01:22:59.933 : en:(19)01:22:59:933
01:27:26.908 : en:(20)01:27:26:908
01:35:54.165 : en:(21)01:35:54:165

Особенности релиза:

Рип сделан в формате 16:9 - специально для корректного воспроизведения 3Dсофт-плеерами сразу в полный экран.
Воспроизведение проверенно: Arcsoft TMT5,6 и Cyberlink PowerDVD12,13
Всем приятного просмотра!
На встроенных ТВ-плейерах показывать НЕ будет!!!Скриншоты:

Время раздачи: 24/7 - круглосуточно до 10 скачавших

[Цитировать]



Показать сообщения:    

Текущее время: 09-Дек 12:47

Часовой пояс: UTC + 3


Вы не можете начинать темы
Вы не можете отвечать на сообщения
Вы не можете редактировать свои сообщения
Вы не можете удалять свои сообщения
Вы не можете голосовать в опросах
Вы не можете прикреплять файлы к сообщениям
Вы не можете скачивать файлы

!ВНИМАНИЕ!
Сайт не предоставляет электронные версии произведений, а занимается лишь коллекционированием и каталогизацией ссылок, присылаемых и публикуемых на форуме нашими читателями. Если вы являетесь правообладателем какого-либо представленного материала и не желаете, чтобы ссылка на него находилась в нашем каталоге, свяжитесь с нами, и мы незамедлительно удалим ее. Файлы для обмена на трекере предоставлены пользователями сайта, и администрация не несет ответственности за их содержание. Просьба не заливать файлы, защищенные авторскими правами, а также файлы нелегального содержания!