[ Сегодня идет свободное скачивание без начисления Download ]


Статистика раздачи
Нет
 
   
 
Top  
 
 
-Человек из стали / Man of Steel (2013) BDRip- Год выпуска: 2013
Производство: США, Канада, Великобритания / Legendary Pictures
Жанр: Фантастика, Фэнтези, Боевик, Приключения
Перевод: Дублированный (Blu-Ray EUR)
Субтитры: Отсутствуют
Дата мировой премьеры: 10 июня 2013
Дата российской премьеры: 20 июня 2013, «Каро-Премьер»
Дата выхода DVD релиза: 24 октября 2013, «CP Дистрибуция»
Дата выхода BLU-RAY релиза: 24 октября 2013, «CP Дистрибуция»
Режиссер: Зак Снайдер
Продюсер: Кристофер Нолан, Чарльз Ровен, Дебора Снайдер
Актеры: Генри Кавилл, Эми Адамс, Майкл Шеннон, Рассел Кроу, Дайан Лэйн, Кевин Костнер, Антье Трауэ, Лоренс Фишбёрн, Кристофер Мелони, Гарри Дж. Ленникс
Роли дублировали: Антон Савенков, Рамиля Искандер, Илья Исаев, Денис Беспалый, Анна Каменкова
Описание фильма:
Кларк Кент/Кал-Эл — молодой человек, который чувствует себя чужаком из-за своей невероятной силы. Много лет назад он был отправлен на Землю с развитой планеты Криптон, и теперь задается вопросом: зачем?
Воспитанный приемными родителями Мартой и Джонатаном Кентами, Кларк знает: обладать сверхспособностями — значит принимать сложные решения. Но когда человечество более всего нуждается в стабильности, оно подвергается нападению. Сможет ли герой восстановить мир, или воспользуется своей силой для того, чтобы окончательно его разрушить?-
Рейтинг PG-13 - Детям до 13 лет просмотр не желателен
Возраст 12+ - зрителям, достигшим 12 лет-Продолжительность: 02:23:03
Качество видео: BDRip
Видеокодек: MPEG-4 AVC/H.264
Битрейт видео: ~22,6 Мбит/сек
Размер кадра: 1920x1600
Аудио 1: AC3 5.1, 640 kbps [Русский]
Аудио 2: AC3 5.1, 640 kbps [Английский]-

Media info:

Общее
Уникальный идентификатор : 175659111261660648196459989868893992389 (0x8426B6D852B4E5A0A4CB46BC494475C5)
Полное имя : D:\Full 3Drip\MAN_OF_STEEL_3D.mkv
Формат : Matroska
Версия формата : Version 2
Размер файла : 24,3 Гбайт
Продолжительность : 2 ч. 23 м.
Общий поток : 24,3 Мбит/сек
Название фильма : MAN_OF_STEEL_3D_FULL_O/U
Дата кодирования : UTC 2013-10-23 17:19:44
Программа кодирования : mkvmerge v5.7.0 ('The Whirlwind') built on Aug 7 2012 14:11:40
Библиотека кодирования : libebml v1.2.3 + libmatroska v1.3.0
Видео
Идентификатор : 1
Формат : AVC
Формат/Информация : Advanced Video Codec
Профиль формата : [email protected]
Параметр CABAC формата : Да
Параметр ReFrames формата : 5 кадров
Идентификатор кодека : V_MPEG4/ISO/AVC
Продолжительность : 2 ч. 23 м.
Битрейт : 22,6 Мбит/сек
Ширина : 1920 пикселей
Высота : 1600 пикселей
Соотношение сторон : 1,200
Соотношение сторон в оригинале : 16:9
Режим частоты кадров : Постоянный
Частота кадров : 23,976 кадра/сек
Цветовое пространство : YUV
Субдискретизация насыщенности : 4:2:0
Битовая глубина : 8 бит
Тип развёртки : Прогрессивная
Бит/(Пиксели*Кадры) : 0.307
Размер потока : 22,6 Гбайт (93%)
Заголовок : rip by I/N
Библиотека кодирования : x264 core 128 r2216M 198a7ea
Настройки программы : cabac=1 / ref=5 / deblock=1:-1:-1 / analyse=0x3:0x133 / me=esa / subme=10 / psy=1 / psy_rd=1.00:0.15 / mixed_ref=1 / me_range=24 / chroma_me=1 / trellis=2 / 8x8dct=1 / cqm=0 / deadzone=21,11 / fast_pskip=1 / chroma_qp_offset=-3 / threads=8 / lookahead_threads=1 / sliced_threads=0 / nr=0 / decimate=1 / interlaced=0 / bluray_compat=0 / constrained_intra=0 / bframes=8 / b_pyramid=2 / b_adapt=2 / b_bias=0 / direct=3 / weightb=1 / open_gop=0 / weightp=2 / keyint=230 / keyint_min=23 / scenecut=40 / intra_refresh=0 / rc_lookahead=60 / rc=crf / mbtree=1 / crf=19.0 / qcomp=0.60 / qpmin=0 / qpmax=69 / qpstep=4 / ip_ratio=1.40 / aq=1:1.00
Default : Да
Forced : Нет
Аудио #1
Идентификатор : 2
Формат : AC-3
Формат/Информация : Audio Coding 3
Расширение режима : CM (complete main)
Параметр Endianness формата : Big
Идентификатор кодека : A_AC3
Продолжительность : 2 ч. 23 м.
Вид битрейта : Постоянный
Битрейт : 640 Кбит/сек
Каналы : 6 каналов
Расположение каналов : Front: L C R, Side: L R, LFE
Частота : 48,0 КГц
Битовая глубина : 16 бит
Метод сжатия : С потерями
Задержка видео : 50 мс.
Размер потока : 655 Мбайт (3%)
Заголовок : Дубляж (Blu-Ray EUR)
Язык : Russian
Default : Да
Forced : Да
Аудио #2
Идентификатор : 3
Формат : AC-3
Формат/Информация : Audio Coding 3
Расширение режима : CM (complete main)
Параметр Endianness формата : Big
Идентификатор кодека : A_AC3
Продолжительность : 2 ч. 23 м.
Вид битрейта : Постоянный
Битрейт : 640 Кбит/сек
Каналы : 6 каналов
Расположение каналов : Front: L C R, Side: L R, LFE
Частота : 48,0 КГц
Битовая глубина : 16 бит
Метод сжатия : С потерями
Размер потока : 655 Мбайт (3%)
Заголовок : Original
Язык : English
Default : Нет
Forced : Нет
Меню
00:00:00.000 : en:(01)00:00:00:000
00:11:16.967 : en:(02)00:11:16:967
00:20:01.450 : en:(03)00:20:01:450
00:30:09.474 : en:(04)00:30:09:474
00:39:21.609 : en:(05)00:39:21:609
00:48:57.643 : en:(06)00:48:57:643
00:59:03.414 : en:(07)00:59:03:414
01:08:57.883 : en:(08)01:08:57:883
01:17:35.108 : en:(09)01:17:35:108
01:28:36.185 : en:(10)01:28:36:185
01:40:47.791 : en:(11)01:40:47:791
01:50:55.857 : en:(12)01:50:55:857
02:00:53.579 : en:(13)02:00:53:579
02:10:13.555 : en:(14)02:10:13:555
02:12:49.920 : en:(15)02:12:49:920
02:23:02.365 : en:(16)02:23:02:365

Особенности релиза:

Рип сделан в формате 16:9 - специально для корректного воспроизведения 3Dсофт-плеерами сразу в полный экран.
Воспроизведение проверенно: Arcsoft TMT5,6 и Cyberlink PowerDVD12,13
Всем приятного просмотра!
На встроенных ТВ-плейерах показывать НЕ будет!!!Скриншоты:

Время раздачи: 24/7 - круглосуточно до 10 скачавших

[Цитировать]



Показать сообщения:    

Текущее время: 04-Дек 23:26

Часовой пояс: UTC + 3


Вы не можете начинать темы
Вы не можете отвечать на сообщения
Вы не можете редактировать свои сообщения
Вы не можете удалять свои сообщения
Вы не можете голосовать в опросах
Вы не можете прикреплять файлы к сообщениям
Вы не можете скачивать файлы

!ВНИМАНИЕ!
Сайт не предоставляет электронные версии произведений, а занимается лишь коллекционированием и каталогизацией ссылок, присылаемых и публикуемых на форуме нашими читателями. Если вы являетесь правообладателем какого-либо представленного материала и не желаете, чтобы ссылка на него находилась в нашем каталоге, свяжитесь с нами, и мы незамедлительно удалим ее. Файлы для обмена на трекере предоставлены пользователями сайта, и администрация не несет ответственности за их содержание. Просьба не заливать файлы, защищенные авторскими правами, а также файлы нелегального содержания!