[ Сегодня идет свободное скачивание без начисления Download ]


Статистика раздачи
Нет
 
   
 
Top  
 
 
-Человек из стали / Man of Steel (2013) BDRip- Год выпуска: 2013
Производство: США, Канада, Великобритания / Legendary Pictures
Жанр: Фантастика, Фэнтези, Боевик, Приключения
Перевод: Дублированный (Русский, Украинский)
Субтитры: Вшитые отключаемые
Язык субтитров: Русский (forced, full), украинский (forced, full), английский (full, SDH, SDH-Colored)
Режиссер: Зак Снайдер / Zack Snyder
Продюсер: Кристофер Нолан, Чарльз Ровен, Дебора Снайдер
Актеры: Генри Кавилл, Эми Адамс, Майкл Шеннон, Рассел Кроу, Дайан Лэйн, Кевин Костнер, Антье Трауэ, Лоренс Фишбёрн, Кристофер Мелони, Гарри Дж. Ленникс
Описание фильма:
Кларк Кент/Кал-Эл — молодой человек, который чувствует себя чужаком из-за своей невероятной силы. Много лет назад он был отправлен на Землю с развитой планеты Криптон, и теперь задается вопросом: зачем? Воспитанный приемными родителями Мартой и Джонатаном Кентами, Кларк знает: обладать сверхспособностями — значит принимать сложные решения. Но когда человечество более всего нуждается в стабильности, оно подвергается нападению. Сможет ли герой восстановить мир, или воспользуется своей силой для того, чтобы окончательно его разрушить?

Дата мировой премьеры: 10 июня 2013
Дата российской премьеры: 20 июня 2013, «Каро-Премьер»
Дата выхода DVD релиза: 24 октября 2013, «CP Дистрибуция»
Дата выхода Blu-Ray релиза: 24 октября 2013, «CP Дистрибуция»
Рейтинг MPAA: PG-13
Возраст: 12+
Продолжительность: 02:23:05
Качество видео: BDRip
Видео: MPEG4_AVC/H.264, 1920x1080, ~13800 kbps, 23.976 fps, 0.278 bit/pixel
Аудио 1: AC3 5.1, 640 kbps, 48 kHz [Русский - дублированный «Blu-Ray EUR»]
Аудио 2: AC3 5.1, 384 kbps, 48 kHz [Украинский - дублированный «R5»]
Аудио 3: DTS 5.1, 1536 kbps, 48 kHz [Английский - оригинал]

Отчёт MediaInfo

Полное имя : D:\Человек.из.стали-Man.of.Steel.(2013).BDRip.[1080p].3D.mkv
Формат : Matroska
Версия формата : Version 3 / Version 2
Размер файла : 16,7 Гбайт
Продолжительность : 2 ч. 23 м.
Общий поток : 16,7 Мбит/сек
Название фильма : Man of Steel (2013)
Дата кодирования : UTC 2013-10-23 14:22:51
Программа кодирования : mkvmerge v5.7.0 ('The Whirlwind') built on Aug 7 2012 14:11:40
Библиотека кодирования : libebml v1.2.3 + libmatroska v1.3.0
Видео
Идентификатор : 1
Формат : AVC
Формат/Информация : Advanced Video Codec
Профиль формата : High@L4.1
MultiView_Count : 2
MultiView_Layout : Top-Bottom (left eye first)
Параметр CABAC формата : Да
Параметр ReFrames формата : 4 кадра
Идентификатор кодека : V_MPEG4/ISO/AVC
Продолжительность : 2 ч. 23 м.
Битрейт : 13,8 Мбит/сек
Ширина : 1920 пикселей
Высота : 1080 пикселей
Соотношение сторон : 16:9
Режим частоты кадров : Постоянный
Частота кадров : 23,976 кадра/сек
Цветовое пространство : YUV
Субдискретизация насыщенности : 4:2:0
Битовая глубина : 8 бит
Тип развёртки : Прогрессивная
Бит/(Пиксели*Кадры) : 0.278
Размер потока : 13,8 Гбайт (83%)
Язык : English
Default : Да
Forced : Нет
Аудио #1
Идентификатор : 2
Формат : AC-3
Формат/Информация : Audio Coding 3
Расширение режима : CM (complete main)
Параметр Endianness формата : Big
Идентификатор кодека : A_AC3
Продолжительность : 2 ч. 23 м.
Вид битрейта : Постоянный
Битрейт : 640 Кбит/сек
Каналы : 6 каналов
Расположение каналов : Front: L C R, Side: L R, LFE
Частота : 48,0 КГц
Битовая глубина : 16 бит
Метод сжатия : С потерями
Размер потока : 655 Мбайт (4%)
Заголовок : AC3 5.1 / 640 kbps / Dub (Blu-ray EUR)
Язык : Russian
Default : Да
Forced : Нет
Аудио #2
Идентификатор : 3
Формат : AC-3
Формат/Информация : Audio Coding 3
Расширение режима : CM (complete main)
Параметр Endianness формата : Big
Идентификатор кодека : A_AC3
Продолжительность : 2 ч. 23 м.
Вид битрейта : Постоянный
Битрейт : 384 Кбит/сек
Каналы : 6 каналов
Расположение каналов : Front: L C R, Side: L R, LFE
Частота : 48,0 КГц
Битовая глубина : 16 бит
Метод сжатия : С потерями
Размер потока : 393 Мбайт (2%)
Заголовок : AC3 5.1 / 384 kbps / Dub (R5)
Язык : Ukrainian
Default : Нет
Forced : Нет
Аудио #3
Идентификатор : 4
Формат : DTS
Формат/Информация : Digital Theater Systems
Идентификатор кодека : A_DTS
Продолжительность : 2 ч. 23 м.
Вид битрейта : Постоянный
Битрейт : 1510 Кбит/сек
Каналы : 6 каналов
Расположение каналов : Front: L C R, Side: L R, LFE
Частота : 48,0 КГц
Битовая глубина : 24 бит
Метод сжатия : С потерями
Размер потока : 1,51 Гбайт (9%)
Заголовок : DTS 5.1 / 1536 kbps / Original
Язык : English
Default : Нет
Forced : Нет
Текст #1
Идентификатор : 5
Формат : UTF-8
Идентификатор кодека : S_TEXT/UTF8
Идентификатор кодека/Информация : UTF-8 Plain Text
Заголовок : Forced
Язык : Russian
Default : Да
Forced : Нет
Текст #2
Идентификатор : 6
Формат : UTF-8
Идентификатор кодека : S_TEXT/UTF8
Идентификатор кодека/Информация : UTF-8 Plain Text
Заголовок : Full
Язык : Russian
Default : Нет
Forced : Нет
Текст #3
Идентификатор : 7
Формат : UTF-8
Идентификатор кодека : S_TEXT/UTF8
Идентификатор кодека/Информация : UTF-8 Plain Text
Заголовок : Forced
Язык : Ukrainian
Default : Нет
Forced : Нет
Текст #4
Идентификатор : 8
Формат : UTF-8
Идентификатор кодека : S_TEXT/UTF8
Идентификатор кодека/Информация : UTF-8 Plain Text
Заголовок : Full
Язык : Ukrainian
Default : Нет
Forced : Нет
Текст #5
Идентификатор : 9
Формат : UTF-8
Идентификатор кодека : S_TEXT/UTF8
Идентификатор кодека/Информация : UTF-8 Plain Text
Заголовок : Full
Язык : English
Default : Нет
Forced : Нет
Текст #6
Идентификатор : 10
Формат : UTF-8
Идентификатор кодека : S_TEXT/UTF8
Идентификатор кодека/Информация : UTF-8 Plain Text
Заголовок : SDH
Язык : English
Default : Нет
Forced : Нет
Текст #7
Идентификатор : 11
Формат : UTF-8
Идентификатор кодека : S_TEXT/UTF8
Идентификатор кодека/Информация : UTF-8 Plain Text
Заголовок : SDH (Colored)
Язык : English
Default : Нет
Forced : Нет
Меню
00:00:00.000 : en:Chapter 1
00:11:16.967 : en:Chapter 2
00:20:01.450 : en:Chapter 3
00:30:09.474 : en:Chapter 4
00:39:21.609 : en:Chapter 5
00:48:57.643 : en:Chapter 6
00:59:03.414 : en:Chapter 7
01:08:57.883 : en:Chapter 8
01:17:35.108 : en:Chapter 9
01:28:36.185 : en:Chapter 10
01:40:47.791 : en:Chapter 11
01:50:55.857 : en:Chapter 12
02:00:53.579 : en:Chapter 13
02:10:13.555 : en:Chapter 14
02:12:49.920 : en:Chapter 15
Скриншоты:

[

[Цитировать]



Показать сообщения:    

Текущее время: 08-Дек 15:03

Часовой пояс: UTC + 3


Вы не можете начинать темы
Вы не можете отвечать на сообщения
Вы не можете редактировать свои сообщения
Вы не можете удалять свои сообщения
Вы не можете голосовать в опросах
Вы не можете прикреплять файлы к сообщениям
Вы не можете скачивать файлы

!ВНИМАНИЕ!
Сайт не предоставляет электронные версии произведений, а занимается лишь коллекционированием и каталогизацией ссылок, присылаемых и публикуемых на форуме нашими читателями. Если вы являетесь правообладателем какого-либо представленного материала и не желаете, чтобы ссылка на него находилась в нашем каталоге, свяжитесь с нами, и мы незамедлительно удалим ее. Файлы для обмена на трекере предоставлены пользователями сайта, и администрация не несет ответственности за их содержание. Просьба не заливать файлы, защищенные авторскими правами, а также файлы нелегального содержания!