[ Сегодня идет свободное скачивание без начисления Download ]


Статистика раздачи
Нет
 
   
 
Top  
 
 
-Тихоокеанский рубеж / Pacific Rim (2013) BDRip-«Чтобы сражаться с монстрами, мы создали монстров»- Год выпуска: 2013
Производство: США / Warner Bros., Legendary Pictures
Жанр: Фантастика, Фэнтези, Боевик, Приключения
Перевод: Многоголосый закадровый, профессиональный (Пираты)
Субтитры: Вшитые отключаемые
Язык субтитров: Русский, Английский-Дата мировой премьеры: 2 июля 2013
Дата российской премьеры: 11 июля 2013, «WDSSPR»
Дата выхода DVD релиза: 14 ноября 2013, «CP Дистрибуция»
Дата выхода Blu-Ray релиза: 14 ноября 2013, «CP Дистрибуция»-Режиссер: Гильермо дель Торо
Продюсер: Джон Дж. Джашни, Мэри Пэрент, Томас Тулл
Актеры: Чарли Ханнэм, Идрис Эльба, Рон Перлман, Чарли Дэй, Клифтон Коллинз мл., Берн Горман, Роберт Мэйллет, Роберт Казински, Ринко Кикути, Хезер Дорксен и др.-Описание фильма:
Когда из морских глубин поднялись легионы чудовищ, известных как Кайдзу, началась война, которой суждено было забрать миллионы жизней и свести «человеческие ресурсы» почти к нулю всего за несколько лет. Чтобы сражаться с пришельцами, было создано специальное оружие: огромные роботы, названные Джегерами, они управлялись одновременно двумя пилотами, чьи сознания соединены с помощью нейронной связи. Но даже Джегеры оказываются почти бессильны перед лицом безжалостных Кайдзу. На грани поражения у защитников человечества нет выбора, кроме как обратиться к двум весьма сомнительным героям — никому не нужному бывшему пилоту и неопытному стажеру — которые объединились, чтобы повести в бой некогда легендарного, но сейчас устаревшего Джегера. Вместе они оказываются единственной надеждой человечества, последним препятствием перед надвигающимся апокалипсисом.- -Продолжительность: 02:11:19
Качество видео: BDRip-Видеокодек: MPEG-4 AVC/H.264
Битрейт видео: ~12537 kbps
Размер кадра: 1920 х 1080
Аудиокодек: DTS
Аудио 1: Русский, DTS 5.1, 1510 kbps , 48 kHz*
Аудио 2: Английский, DTS 5.1, 1509 kbps, 48 kHz
* За русскую дорожку спасибо october2-Сэмпл: Скачать-

MediaInfo:

Общее
Уникальный идентификатор : 198359542537344369370410761909679902154 (0x953AA8849052DD6AA5A2A21224E34DCA)
Полное имя : C:\Temp\Pacific.Rim.2013.1080p.Half-OU.3D.BDRip.mkv
Формат : Matroska
Версия формата : Version 3 / Version 2
Размер файла : 14,3 Гбайт
Продолжительность : 2 ч. 11 м.
Общий поток : 15,6 Мбит/сек
Дата кодирования : UTC 2013-10-08 03:55:04
Программа кодирования : mkvmerge v5.2.0 ('I can't explain') built on Dec 18 2011 18:12:03
Библиотека кодирования : libebml v1.2.3 + libmatroska v1.3.0
Видео
Идентификатор : 1
Формат : AVC
Формат/Информация : Advanced Video Codec
Профиль формата : [email protected]
MultiView_Count : 2
MultiView_Layout : Top-Bottom (left eye first)
Параметр CABAC формата : Да
Параметр ReFrames формата : 4 кадра
Идентификатор кодека : V_MPEG4/ISO/AVC
Продолжительность : 2 ч. 11 м.
Битрейт : 12,2 Мбит/сек
Ширина : 1920 пикселей
Высота : 1080 пикселей
Соотношение сторон : 16:9
Режим частоты кадров : Постоянный
Частота кадров : 23,976 кадра/сек
Цветовое пространство : YUV
Субдискретизация насыщенности : 4:2:0
Битовая глубина : 8 бит
Тип развёртки : Прогрессивная
Бит/(Пиксели*Кадры) : 0.246
Размер потока : 11,2 Гбайт (79%)
Язык : English
Default : Да
Forced : Нет
Аудио #1
Идентификатор : 2
Формат : DTS
Формат/Информация : Digital Theater Systems
Режим : 16
Параметр Endianness формата : Big
Идентификатор кодека : A_DTS
Продолжительность : 2 ч. 11 м.
Вид битрейта : Постоянный
Битрейт : 1510 Кбит/сек
Каналы : 6 каналов
Расположение каналов : Front: L C R, Side: L R, LFE
Частота : 48,0 КГц
Битовая глубина : 24 бит
Метод сжатия : С потерями
Размер потока : 1,38 Гбайт (10%)
Заголовок : MVO
Язык : Russian
Default : Да
Forced : Нет
Аудио #2
Идентификатор : 3
Формат : DTS
Формат/Информация : Digital Theater Systems
Режим : 16
Параметр Endianness формата : Big
Идентификатор кодека : A_DTS
Продолжительность : 2 ч. 11 м.
Вид битрейта : Постоянный
Битрейт : 1509 Кбит/сек
Каналы : 6 каналов
Расположение каналов : Front: L C R, Side: L R, LFE
Частота : 48,0 КГц
Битовая глубина : 24 бит
Метод сжатия : С потерями
Размер потока : 1,38 Гбайт (10%)
Язык : English
Default : Нет
Forced : Нет
Текст #1
Идентификатор : 4
Формат : UTF-8
Идентификатор кодека : S_TEXT/UTF8
Идентификатор кодека/Информация : UTF-8 Plain Text
Язык : Russian
Default : Нет
Forced : Нет
Текст #2
Идентификатор : 5
Формат : UTF-8
Идентификатор кодека : S_TEXT/UTF8
Идентификатор кодека/Информация : UTF-8 Plain Text
Язык : English
Default : Нет
Forced : Нет
Меню
00:00:00.000 : en:00:00:00.000
00:09:09.132 : en:00:09:09.132
00:18:35.823 : en:00:18:35.823
00:23:04.341 : en:00:23:04.341
00:33:00.395 : en:00:33:00.395
00:42:44.896 : en:00:42:44.896
00:50:01.665 : en:00:50:01.665
01:01:09.666 : en:01:01:09.666
01:14:45.106 : en:01:14:45.106
01:22:21.311 : en:01:22:21.311
01:32:09.941 : en:01:32:09.941
01:41:55.609 : en:01:41:55.609
01:51:37.858 : en:01:51:37.858
01:59:21.029 : en:01:59:21.029
02:02:17.830 : en:02:02:17.830

Bitrate Viewer:

-Скриншоты:
-Время раздачи: С 8:00 до 22:00 до 5 скачавших

[Цитировать]



Показать сообщения:    

Текущее время: 06-Дек 15:12

Часовой пояс: UTC + 3


Вы не можете начинать темы
Вы не можете отвечать на сообщения
Вы не можете редактировать свои сообщения
Вы не можете удалять свои сообщения
Вы не можете голосовать в опросах
Вы не можете прикреплять файлы к сообщениям
Вы не можете скачивать файлы

!ВНИМАНИЕ!
Сайт не предоставляет электронные версии произведений, а занимается лишь коллекционированием и каталогизацией ссылок, присылаемых и публикуемых на форуме нашими читателями. Если вы являетесь правообладателем какого-либо представленного материала и не желаете, чтобы ссылка на него находилась в нашем каталоге, свяжитесь с нами, и мы незамедлительно удалим ее. Файлы для обмена на трекере предоставлены пользователями сайта, и администрация не несет ответственности за их содержание. Просьба не заливать файлы, защищенные авторскими правами, а также файлы нелегального содержания!