[ Сегодня идет свободное скачивание без начисления Download ]


Статистика раздачи
Нет
 
   
 
Top  
 
 
Человек из стали / Man of Steel Год выпуска: 2013
Страна: США, Канада, Великобритания
Производство: DC Entertainment, Legendary Pictures, Syncopy, Third Act Productions, Warner Bros. Pictures
Жанр: Фантастика, фэнтези, боевик, приключения
Режиссёр: Зак Снайдер / Zack Snyder
В ролях: Генри Кавилл (Clark Kent /Kal-El), Эми Адамс (Lois Lane), Майкл Шеннон (General Zod), Рассел Кроу (Jor-El), Дайан Лэйн (Martha Kent), Кевин Костнер (Jonathan Kent), Антье Трауэ (Faora-Ul), Лоренс Фишбёрн (Perry White), Кристофер Мелони (Colonel Nathan Hardy), Гарри Дж. Ленникс (General Swanwick), Ричард Шифф (Dr. Emil Hamilton), Айелет Зурер (Lara Lor-Van)
Перевод: Профессиональный (полное дублирование) + Оригинал (Английский)
Субтитры: Русские (3 вида), Английские (полные (3 вида), SDH (2 вида), SDH цветные)
Описание: Кларк Кент/Кал-Эл - молодой человек, который чувствует себя чужаком из-за своей невероятной силы. Много лет назад он был отправлен на Землю с развитой планеты Криптон, и теперь задается вопросом: зачем? Воспитанный приемными родителями Мартой и Джонатаном Кентами, Кларк знает: обладать сверхспособностями - значит принимать сложные решения. Но когда человечество более всего нуждается в стабильности, оно подвергается нападению. Сможет ли герой восстановить мир, или воспользуется своей силой для того, чтобы окончательно его разрушить?

Релиз от RG MATROSKA
Автор рипа zOJIOtOi
Качество видео: BDRip-AVC | исх. Человек из стали / Man of Steel (2013) Blu-ray CEE 1080p AVC DD5.1
Продолжительность: 02:23:03 час
Формат видео: MKV
Видео: 1152x480 (2.40:1), 23,976 fps, H.264 ~4 457 kbps avg, 0.296 bit/pixel
Аудио #1: 48 kHz, AC3, 3/2 (L,C,R,l,r) + LFE ch, ~448.00 kbps avg | Профессиональный (полное дублирование)
Аудио #2: 48 kHz, AC3, 3/2 (L,C,R,l,r) + LFE ch, ~448.00 kbps avg | Оригинал (английский)
Формат субтитров: softsub (SRT)

MediaInfo| log x264

log x264

avs [info]: 1152x480p 1:1 @ 2500000/104271 fps (cfr)
x264 [info]: using SAR=1/1
x264 [info]: using cpu capabilities: MMX2 SSE2Fast SSSE3 FastShuffle SSE4.2 AVX
x264 [info]: profile High, level 4.1
x264 [info]: frame I:1466 Avg QP:17.97 size: 73579
x264 [info]: frame P:48559 Avg QP:19.36 size: 39093
x264 [info]: frame B:155752 Avg QP:22.23 size: 17821
x264 [info]: consecutive B-frames: 3.5% 3.7% 9.4% 22.7% 18.1% 27.2% 6.6% 3.5% 3.3% 1.0% 0.6% 0.3%
x264 [info]: mb I I16..4: 19.8% 61.7% 18.5%
x264 [info]: mb P I16..4: 4.3% 21.8% 2.4% P16..4: 24.6% 28.7% 7.1% 2.4% 0.2% skip: 8.5%
x264 [info]: mb B I16..4: 0.2% 4.3% 0.3% B16..8: 37.5% 19.3% 3.6% direct: 7.6% skip:27.2% L0:42.9% L1:45.0% BI:12.2%
x264 [info]: 8x8 transform intra:79.7% inter:56.5%
x264 [info]: coded y,uvDC,uvAC intra: 94.0% 78.6% 48.0% inter: 37.6% 21.5% 2.0%
x264 [info]: i16 v,h,dc,p: 7% 4% 25% 64%
x264 [info]: i8 v,h,dc,ddl,ddr,vr,hd,vl,hu: 7% 8% 10% 10% 14% 12% 14% 11% 14%
x264 [info]: i4 v,h,dc,ddl,ddr,vr,hd,vl,hu: 7% 7% 6% 9% 16% 14% 15% 11% 15%
x264 [info]: i8c dc,h,v,p: 36% 28% 17% 20%
x264 [info]: Weighted P-Frames: Y:5.9% UV:3.0%
x264 [info]: ref P L0: 43.9% 9.8% 18.1% 6.7% 5.5% 3.7% 3.4% 1.8% 1.8% 1.4% 1.3% 1.1% 1.2% 0.3% 0.0%
x264 [info]: ref B L0: 72.4% 12.2% 5.3% 2.9% 1.9% 1.6% 1.2% 0.8% 0.7% 0.6% 0.3% 0.2%
x264 [info]: ref B L1: 92.9% 7.1%
x264 [info]: kb/s:4457.28
encoded 205777 frames, 1.97 fps, 4457.28 kb/s
Общее
Уникальный идентификатор : 245350403657431222641950472646738349349 (0xB894C4D8689E8F7382CF456384B48D25)
Полное имя : D:\\my rips\\Man.of.steel.2013.BDRip-AVC.Dub.Org.Subs.by.zOJIOtOi.mkv
Формат : Matroska
Версия формата : Version 2
Размер файла : 5,35 Гбайт
Продолжительность : 2 ч. 23 м.
Общий поток : 5356 Кбит/сек
Дата кодирования : UTC 2013-10-27 11:06:52
Программа кодирования : mkvmerge v5.0.1 (\'Es ist Sommer\') built on Nov 6 2011 16:23:40
Библиотека кодирования : libebml v1.2.2 + libmatroska v1.3.0
Видео
Идентификатор : 1
Формат : AVC
Формат/Информация : Advanced Video Codec
Профиль формата : [email protected]
Параметр CABAC формата : Да
Параметр ReFrames формата : 13 кадров
Идентификатор кодека : V_MPEG4/ISO/AVC
Продолжительность : 2 ч. 23 м.
Битрейт : 4353 Кбит/сек
Ширина : 1152 пикселя
Высота : 480 пикселей
Соотношение сторон : 2,40:1
Режим частоты кадров : Постоянный
Частота кадров : 23,976 кадра/сек
Цветовое пространство : YUV
Субдискретизация насыщенности : 4:2:0
Битовая глубина : 8 бит
Тип развёртки : Прогрессивная
Бит/(Пиксели*Кадры) : 0.328
Размер потока : 4,35 Гбайт (81%)
Заголовок : Man.of.steel.2013.BDRip-AVC.by.zOJIOtOi
Библиотека кодирования : x264 core 119 r2106 07efeb4
Настройки программы : cabac=1 / ref=13 / deblock=1:-3:-3 / analyse=0x3:0x133 / me=umh / subme=11 / psy=1 / psy_rd=1.00:0.15 / mixed_ref=1 / me_range=48 / chroma_me=1 / trellis=2 / 8x8dct=1 / cqm=0 / deadzone=21,11 / fast_pskip=1 / chroma_qp_offset=-3 / threads=6 / sliced_threads=0 / nr=0 / decimate=1 / interlaced=0 / bluray_compat=0 / constrained_intra=0 / bframes=11 / b_pyramid=2 / b_adapt=2 / b_bias=0 / direct=1 / weightb=1 / open_gop=0 / weightp=2 / keyint=240 / keyint_min=23 / scenecut=40 / intra_refresh=0 / rc_lookahead=60 / rc=crf / mbtree=0 / crf=19.1 / qcomp=0.60 / qpmin=0 / qpmax=69 / qpstep=4 / vbv_maxrate=50000 / vbv_bufsize=62500 / crf_max=0.0 / nal_hrd=none / ip_ratio=1.40 / pb_ratio=1.30 / aq=2:1.00
Язык : English
Default : Да
Forced : Нет
Аудио #1
Идентификатор : 2
Формат : AC-3
Формат/Информация : Audio Coding 3
Расширение режима : CM (complete main)
Параметр Endianness формата : Big
Идентификатор кодека : A_AC3
Продолжительность : 2 ч. 23 м.
Вид битрейта : Постоянный
Битрейт : 448 Кбит/сек
Каналы : 6 каналов
Расположение каналов : Front: L C R, Side: L R, LFE
Частота : 48,0 КГц
Битовая глубина : 16 бит
Метод сжатия : С потерями
Размер потока : 458 Мбайт (8%)
Заголовок : Dub - BluRay
Язык : Russian
Default : Да
Forced : Нет
Аудио #2
Идентификатор : 3
Формат : AC-3
Формат/Информация : Audio Coding 3
Расширение режима : CM (complete main)
Параметр Endianness формата : Big
Идентификатор кодека : A_AC3
Продолжительность : 2 ч. 23 м.
Вид битрейта : Постоянный
Битрейт : 448 Кбит/сек
Каналы : 6 каналов
Расположение каналов : Front: L C R, Side: L R, LFE
Частота : 48,0 КГц
Битовая глубина : 16 бит
Метод сжатия : С потерями
Размер потока : 458 Мбайт (8%)
Заголовок : Original
Язык : English
Default : Нет
Forced : Нет
Текст #1
Идентификатор : 4
Формат : UTF-8
Идентификатор кодека : S_TEXT/UTF8
Идентификатор кодека/Информация : UTF-8 Plain Text
Заголовок : srt
Язык : Russian
Default : Да
Forced : Нет
Текст #2
Идентификатор : 5
Формат : UTF-8
Идентификатор кодека : S_TEXT/UTF8
Идентификатор кодека/Информация : UTF-8 Plain Text
Заголовок : srt
Язык : Russian
Default : Нет
Forced : Нет
Текст #3
Идентификатор : 6
Формат : UTF-8
Идентификатор кодека : S_TEXT/UTF8
Идентификатор кодека/Информация : UTF-8 Plain Text
Заголовок : Notabenoid.srt
Язык : Russian
Default : Нет
Forced : Нет
Текст #4
Идентификатор : 7
Формат : UTF-8
Идентификатор кодека : S_TEXT/UTF8
Идентификатор кодека/Информация : UTF-8 Plain Text
Заголовок : srt
Язык : English
Default : Нет
Forced : Нет
Текст #5
Идентификатор : 8
Формат : UTF-8
Идентификатор кодека : S_TEXT/UTF8
Идентификатор кодека/Информация : UTF-8 Plain Text
Заголовок : srt
Язык : English
Default : Нет
Forced : Нет
Текст #6
Идентификатор : 9
Формат : UTF-8
Идентификатор кодека : S_TEXT/UTF8
Идентификатор кодека/Информация : UTF-8 Plain Text
Заголовок : srt
Язык : Russian
Default : Нет
Forced : Нет
Текст #7
Идентификатор : 10
Формат : UTF-8
Идентификатор кодека : S_TEXT/UTF8
Идентификатор кодека/Информация : UTF-8 Plain Text
Заголовок : SDH.color
Язык : English
Default : Нет
Forced : Нет
Текст #8
Идентификатор : 11
Формат : UTF-8
Идентификатор кодека : S_TEXT/UTF8
Идентификатор кодека/Информация : UTF-8 Plain Text
Заголовок : SDH.i.srt
Язык : English
Default : Нет
Forced : Нет
Текст #9
Идентификатор : 12
Формат : UTF-8
Идентификатор кодека : S_TEXT/UTF8
Идентификатор кодека/Информация : UTF-8 Plain Text
Заголовок : SDH
Язык : English
Default : Нет
Forced : Нет

Скриншоты


[Цитировать]



Показать сообщения:    

Текущее время: 06-Дек 22:57

Часовой пояс: UTC + 3


Вы не можете начинать темы
Вы не можете отвечать на сообщения
Вы не можете редактировать свои сообщения
Вы не можете удалять свои сообщения
Вы не можете голосовать в опросах
Вы не можете прикреплять файлы к сообщениям
Вы не можете скачивать файлы

!ВНИМАНИЕ!
Сайт не предоставляет электронные версии произведений, а занимается лишь коллекционированием и каталогизацией ссылок, присылаемых и публикуемых на форуме нашими читателями. Если вы являетесь правообладателем какого-либо представленного материала и не желаете, чтобы ссылка на него находилась в нашем каталоге, свяжитесь с нами, и мы незамедлительно удалим ее. Файлы для обмена на трекере предоставлены пользователями сайта, и администрация не несет ответственности за их содержание. Просьба не заливать файлы, защищенные авторскими правами, а также файлы нелегального содержания!