[ Сегодня идет свободное скачивание без начисления Download ]


Статистика раздачи
Нет
 
   
 
Top  
 
 
-Zомби каникулы (2013) BDRip«НеКромантическая комедия»- Год выпуска: 2013
Производство: Россия | New Wave Productions
Жанр: Ужасы, Триллер, Комедия
Перевод: Не требуется [лицензия]
Субтитры: Отсутствуют
Дата мировой премьеры: 6 апреля 2013
Дата российской премьеры: 15 августа 2013, «Top Film Distribution»
Дата выхода DVD релиза: 10 сентября 2013, «Lizard Cinema Trade»
Дата выхода BLU-RAY релиза: 10 сентября 2013, «Lizard Cinema Trade»
Режиссер: Кирилл Кемниц
Продюсер: Михаил Купфер, Андрей Купфер, Сергей Торчилин
Актеры: Юлия Волкова, Михаил Ефремов, Антон Зиновьев, Ирина Хануник-Ромбальская, Александр Ефремов, Дарья Торчилина, Александр Левенчук, Ольга Доценко, Виолетта Нестерович, Валерий Зеленский
Описание фильма:
Группа молодых людей собирается на главную тусовку лета. Как и полагается, подготовка идёт полным ходом, но никто не догадывается, что судьба готовит им совершенно другую программу на афтепати. Оказавшись в эпицентре зомбоапокалипсиса, друзья обнаруживают, что «ходячие» охотятся только за теми, кто испытывает страх…-
Рейтинг R+ - зрителям, достигшим 18 лет-Продолжительность: 01:35:06
Качество видео: BDRip
Видеокодек: MPEG-4 AVC/H.264
Битрейт видео: ~12,9 Мбит/сек
Размер кадра: 1920x1080
Аудиокодек: AC3 5.1
Битрейт аудио: 640 Кбит/сек-

Media info:

Общее
Уникальный идентификатор : 186421358071577949516977754207102311258 (0x8C3F72947E7728858D839208C5AA1B5A)
Полное имя : F:\my films\ZOMBIE_FEVER_3D.mkv
Формат : Matroska
Версия формата : Version 2
Размер файла : 9,18 Гбайт
Продолжительность : 1 ч. 35 м.
Общий поток : 13,8 Мбит/сек
Название фильма : ZOMBIE_FEVER_3D_CROP_O/U
Дата кодирования : UTC 2013-09-08 09:51:05
Программа кодирования : mkvmerge v5.7.0 ('The Whirlwind') built on Aug 7 2012 14:11:40
Библиотека кодирования : libebml v1.2.3 + libmatroska v1.3.0
Видео
Идентификатор : 1
Формат : AVC
Формат/Информация : Advanced Video Codec
Профиль формата : High@L4.1
Параметр CABAC формата : Да
Параметр ReFrames формата : 4 кадра
Идентификатор кодека : V_MPEG4/ISO/AVC
Продолжительность : 1 ч. 35 м.
Битрейт : 12,9 Мбит/сек
Ширина : 1920 пикселей
Высота : 1080 пикселей
Соотношение сторон : 16:9
Режим частоты кадров : Постоянный
Частота кадров : 23,976 кадра/сек
Цветовое пространство : YUV
Субдискретизация насыщенности : 4:2:0
Битовая глубина : 8 бит
Тип развёртки : Прогрессивная
Бит/(Пиксели*Кадры) : 0.259
Размер потока : 8,57 Гбайт (93%)
Заголовок : rip by I/N
Библиотека кодирования : x264 core 128 r2216M 198a7ea
Настройки программы : cabac=1 / ref=4 / deblock=1:-3:-3 / analyse=0x3:0x133 / me=esa / subme=10 / psy=1 / psy_rd=1.00:0.15 / mixed_ref=1 / me_range=32 / chroma_me=1 / trellis=2 / 8x8dct=1 / cqm=0 / deadzone=21,11 / fast_pskip=1 / chroma_qp_offset=-3 / threads=8 / lookahead_threads=1 / sliced_threads=0 / nr=0 / decimate=1 / interlaced=0 / bluray_compat=0 / constrained_intra=0 / bframes=6 / b_pyramid=2 / b_adapt=2 / b_bias=0 / direct=3 / weightb=1 / open_gop=0 / weightp=2 / keyint=230 / keyint_min=23 / scenecut=40 / intra_refresh=0 / rc_lookahead=60 / rc=crf / mbtree=1 / crf=17.0 / qcomp=0.60 / qpmin=0 / qpmax=69 / qpstep=4 / vbv_maxrate=40000 / vbv_bufsize=30000 / crf_max=30.0 / nal_hrd=none / ip_ratio=1.40 / aq=1:0.70
Default : Да
Forced : Нет
Аудио
Идентификатор : 2
Формат : AC-3
Формат/Информация : Audio Coding 3
Расширение режима : CM (complete main)
Параметр Endianness формата : Big
Идентификатор кодека : A_AC3
Продолжительность : 1 ч. 35 м.
Вид битрейта : Постоянный
Битрейт : 640 Кбит/сек
Каналы : 6 каналов
Расположение каналов : Front: L C R, Side: L R, LFE
Частота : 48,0 КГц
Битовая глубина : 16 бит
Метод сжатия : С потерями
Задержка видео : 250 мс.
Размер потока : 435 Мбайт (5%)
Заголовок : Дубляж
Язык : Russian
Default : Да
Forced : Нет
Меню
00:00:00.000 : en:(01)00:00:00:000
00:04:02.700 : en:(02)00:04:02:700
00:11:07.458 : en:(03)00:11:07:458
00:17:54.323 : en:(04)00:17:54:323
00:24:02.566 : en:(05)00:24:02:566
00:29:12.751 : en:(06)00:29:12:751
00:37:03.512 : en:(07)00:37:03:512
00:43:38.449 : en:(08)00:43:38:449
00:48:27.321 : en:(09)00:48:27:321
00:53:40.133 : en:(10)00:53:40:133
00:59:47.083 : en:(11)00:59:47:083
01:05:02.690 : en:(12)01:05:02:690
01:11:05.761 : en:(13)01:11:05:761
01:18:26.702 : en:(14)01:18:26:702
01:23:19.411 : en:(15)01:23:19:411
01:30:25.503 : en:(16)01:30:25:503
01:35:06.617 : en:(17)01:35:06:617

Особенности релиза:

Справа и слева у видеоряда ничего не обрезано, убраны только чёрные полосы.
Всем приятного просмотра!
Проверено на встроенном плейере ТВ Samsung-D6500Скриншоты:

Время раздачи: 24/7 - круглосуточно до 10 скачавших

[Цитировать]



Показать сообщения:    

Текущее время: 10-Дек 15:51

Часовой пояс: UTC + 3


Вы не можете начинать темы
Вы не можете отвечать на сообщения
Вы не можете редактировать свои сообщения
Вы не можете удалять свои сообщения
Вы не можете голосовать в опросах
Вы не можете прикреплять файлы к сообщениям
Вы не можете скачивать файлы

!ВНИМАНИЕ!
Сайт не предоставляет электронные версии произведений, а занимается лишь коллекционированием и каталогизацией ссылок, присылаемых и публикуемых на форуме нашими читателями. Если вы являетесь правообладателем какого-либо представленного материала и не желаете, чтобы ссылка на него находилась в нашем каталоге, свяжитесь с нами, и мы незамедлительно удалим ее. Файлы для обмена на трекере предоставлены пользователями сайта, и администрация не несет ответственности за их содержание. Просьба не заливать файлы, защищенные авторскими правами, а также файлы нелегального содержания!