[ Сегодня идет свободное скачивание без начисления Download ]


Статистика раздачи
Нет
 
   
 
Top  
 
 
-Мы – Миллеры / We're the Millers (2013) HDRip-«-Если кто-нибудь спросит»- Год выпуска: 2013
Производство: США / BenderSpink, New Line Cinema, Vincent Newman Entertainment
Жанр: Комедия, Криминал
Перевод: Многоголосый закадровый, профессиональный
Озвучка : [Baibako]
Субтитры: Отсутствуют
Дата мировой премьеры: 3 августа 2013
Дата российской премьеры: 15 августа 2013, «Каро-Премьер»
Дата выхода DVD релиза: 19 декабря 2013, «CP Дистрибуция»
Режиссер: Роусон Маршалл Тёрбер
Продюсер: Крис Бендер, Винсент Ньюман, Эдвард Пелле
Актеры: Дженнифер Энистон, Джейсон Судейкис, Уилл Поултер, Эмма Робертс, Эд Хелмс, Ник Офферман, Кэтрин Хан, Молли С. Куинн, Томер Сисле, Мэттью Уиллиг
Описание фильма:
Дэвид Берк — мелкий торговец наркотиками. Среди его клиентов — повара и скучающие домохозяйки. Детям он наркотики не продаёт и поэтому считает себя принципиальным человеком. Дэвид действительно хорошо относится к детям, но это не остается безнаказанным — он пытается помочь подросткам, попавшим в беду, и на него нападают хулиганы-панки. Они отбирают у него наркотики и деньги, и наш герой оказывается в отчаянном положении. Ведь ему нечем расплатиться с его поставщиком Брэдом. Единственный выход — подрядиться на доставку крупной партии наркотиков через границу…

Продолжительность: 01:58:43
Качество видео: HDRip
Примечание:
EXTENDED версия. Длиннее тетарльной на ~7 мин. Полный перевод!
Видеокодек: Xvid
Битрейт видео: ~1362 Kbps 23.98 fps
Размер кадра: 720x304
Аудиокодек: AC3 5.1
Битрейт аудио: 384 Kbps 48000 Hz
Сэмпл: Скачать

MediaInfo:

Общее
Полное имя                               : My.Millery.2013.P.HDRip.1400MB.nnm-club.avi
Формат                                   : AVI
Формат/Информация                        : Audio Video Interleave
Размер файла                             : 1,46 Гбайт
Продолжительность                        : 1 ч. 58 м.
Общий поток                              : 1756 Кбит/сек
Программа кодирования                    : VirtualDubMod 1.5.10.2 (build 2540/release)
Библиотека кодирования                   : VirtualDubMod build 2540/release
Видео
Идентификатор                            : 0
Формат                                   : MPEG-4 Visual
Профиль формата                          : Advanced Simple@L5
Параметр BVOP формата                    : 2
Параметр QPel формата                    : Нет
Параметр GMC формата                     : Без точки перехода
Параметр матрицы формата                 : Выборочная
Идентификатор кодека                     : XVID
Идентификатор кодека/Подсказка           : XviD
Продолжительность                        : 1 ч. 58 м.
Битрейт                                  : 1363 Кбит/сек
Ширина                                   : 720 пикселей
Высота                                   : 304 пикселя
Соотношение сторон                       : 2,35:1
Частота кадров                           : 23,976 кадра/сек
Цветовое пространство                    : YUV
Субдискретизация насыщенности            : 4:2:0
Битовая глубина                          : 8 бит
Тип развёртки                            : Прогрессивная
Метод сжатия                             : С потерями
Бит/(Пиксели*Кадры)                      : 0.260
Размер потока                            : 1,13 Гбайт (78%)
Библиотека кодирования                   : XviD 1.2.1 (UTC 2008-12-04)
Аудио
Идентификатор                            : 1
Формат                                   : AC-3
Формат/Информация                        : Audio Coding 3
Расширение режима                        : CM (complete main)
Параметр Endianness формата              : Big
Идентификатор кодека                     : 2000
Продолжительность                        : 1 ч. 58 м.
Вид битрейта                             : Постоянный
Битрейт                                  : 384 Кбит/сек
Каналы                                   : 6 каналов
Расположение каналов                     : Front: L C R, Side: L R, LFE
Частота                                  : 48,0 КГц
Битовая глубина                          : 16 бит
Метод сжатия                             : С потерями
Размер потока                            : 326 Мбайт (22%)
Выравнивание                             : Разделение по промежуткам
Продолжительность промежутка             : 42  мс. (1,00 видеокадр)
Время предзагрузки промежутка            : 500  мс.
Скриншоты:
Время раздачи: 24/7 (до 10 скачавших)

[Цитировать]

Топик был перенесен из форума Новинки кинопроката в форум Комедия
Henkok



Показать сообщения:    

Текущее время: 08-Дек 21:15

Часовой пояс: UTC + 3


Вы не можете начинать темы
Вы не можете отвечать на сообщения
Вы не можете редактировать свои сообщения
Вы не можете удалять свои сообщения
Вы не можете голосовать в опросах
Вы не можете прикреплять файлы к сообщениям
Вы не можете скачивать файлы

!ВНИМАНИЕ!
Сайт не предоставляет электронные версии произведений, а занимается лишь коллекционированием и каталогизацией ссылок, присылаемых и публикуемых на форуме нашими читателями. Если вы являетесь правообладателем какого-либо представленного материала и не желаете, чтобы ссылка на него находилась в нашем каталоге, свяжитесь с нами, и мы незамедлительно удалим ее. Файлы для обмена на трекере предоставлены пользователями сайта, и администрация не несет ответственности за их содержание. Просьба не заливать файлы, защищенные авторскими правами, а также файлы нелегального содержания!