[ Today is free to download without increasing Download ]

DL-List and Torrent activity
-Росомаха: Бессмертный / The Wolverine (2013) DVDRip«When he's most vulnerable, he's most dangerous»- Год выпуска: 2013
Производство: США, 20th Century Fox Film Corporation
Жанр: Фантастика, Боевик, Приключения
Перевод: Дублированный (звук с TS)
Субтитры: Отсутствуют
Дата мировой премьеры: 24 июля 2013
Дата российской премьеры: 25 июля 2013, «Двадцатый Век Фокс СНГ»
Дата украинской премьеры: 25 июля 2013, «Ukrainian Film Distribution»
Дата выхода DVD / Blu-Ray релиза: 28 ноября 2013, «Двадцатый Век Фокс СНГ»
Режиссер: Джеймс Мэнголд
Продюсер: Хатч Паркер, Лорен Шулер Доннер, Джозеф М. Карачиоло мл.
Актеры: Хью Джекман, Тао Окамото, Рила Фукусима, Светлана Ходченкова, Уилл Юн Ли, Харукико Яманоути, Хироюки Санада, Брайан Ти, Кен Ямамура, Фамке Янссен
Описание фильма:
Новая глава приключений Росомахи развернётся в Японии, где Логану предстоит выяснить, что острее — когти Росомахи или меч Серебряного Самурая.

Продолжительность: 02:06:08
Качество видео: DVDRip
Видеокодек: Xvid
Битрейт видео: ~685 Kbit/s
Размер кадра: 640 x 272
Аудиокодек: MP3 2.0
Битрейт аудио: 128 Kbit/s


Полное имя : D:\Торренты\РЕЛИЗЫ\Росомаха Бессмертный.2013.DVDRip.745Mb.avi
Формат : AVI
Формат/Информация : Audio Video Interleave
Размер файла : 742 Мбайт
Продолжительность : 2 ч. 6 м.
Общий поток : 822 Кбит/сек
Программа кодирования : VirtualDubMod (build 2540/release)
Библиотека кодирования : VirtualDubMod build 2540/release
Идентификатор : 0
Формат : MPEG-4 Visual
Профиль формата : Advanced Simple@L5
Параметр BVOP формата : 2
Параметр QPel формата : Нет
Параметр GMC формата : Без точки перехода
Параметр матрицы формата : Выборочная
Идентификатор кодека : XVID
Идентификатор кодека/Подсказка : XviD
Продолжительность : 2 ч. 6 м.
Битрейт : 685 Кбит/сек
Ширина : 640 пикс.
Высота : 272 пикс.
Соотношение сторон : 2,35:1
Частота кадров : 23,976 кадр/сек
Цветовое пространство : YUV
Подвыборка цветности : 4:2:0
Битовая глубина : 8 бит
Тип развёртки : Прогрессивная
Метод сжатия : С потерями
Бит/(Пиксели*Кадры) : 0.164
Размер потока : 618 Мбайт (83%)
Библиотека кодирования : XviD 1.2.1 (UTC 2008-12-04)
Идентификатор : 1
Формат : MPEG Audio
Версия формата : Version 1
Профиль формата : Layer 3
Режим : Joint stereo
Расширение режима : MS Stereo
Идентификатор кодека : 55
Идентификатор кодека/Подсказка : MP3
Продолжительность : 2 ч. 6 м.
Вид битрейта : Постоянный
Битрейт : 128 Кбит/сек
Каналы : 2 канала
Частота : 48,0 КГц
Метод сжатия : С потерями
Размер потока : 115 Мбайт (16%)
Выравнивание : Соединение по промежуткам
Продолжительность промежутка : 42 мс. (1,00 видеокадр)
Время предзагрузки промежутка : 504 ms
Время раздачи: 24/7 по возможности


Display posts:    

Current time is: 25-Oct 15:04

All times are UTC + 3

You cannot post new topics in this forum
You cannot reply to topics in this forum
You cannot edit your posts in this forum
You cannot delete your posts in this forum
You cannot vote in polls in this forum
You cannot attach files in this forum
You cannot download files in this forum

The site does not give electronic versions of products, and is engaged only in a collecting and cataloguing of the references sent and published at a forum by our readers. If you are the legal owner of any submitted material and do not wish that the reference to it was in our catalogue, contact us and we shall immediately remove her. Files for an exchange on tracker are given by users of a site, and the administration does not bear the responsibility for their maintenance. The request to not fill in the files protected by copyrights, and also files of the illegal maintenance!