[ Сегодня идет свободное скачивание без начисления Download ]


Статистика раздачи
Нет
 
   
 
Top  
 
 
-Апостол Пётр и Тайная вечеря / Apostle Peter and the Last Supper (2012) DVDRip- Год выпуска: 2012
Производство: США
Жанр: Драма, Исторический
Перевод: Одноголосый закадровый, любительский
Субтитры: Отсутствуют
Режиссер: Гэбриел Саблофф
Актеры: Адам Кендрик, Расселл Вульф, Matthew Bacis, Майкл Дэйли, Летиция Роблз, Тру Коллинз, Сара Прикрил, Роберт Лоджа, Шон Гибни, Эмилио Дургазинх, Дэвид Каллауэй, Доминик Богарт, Лорни Хьюз, Дилан Ситон, Leon Melas, Брюс Марчиано, Kevin Hoffmann, Шоун Сэвадж, Брайан С. Кристофер, Томас Колби, Том Конкл, Райан Алосио, Дэвид Колье, Билл Оберст мл., Джонатан Ле Биллон
Сэмпл
Описание фильма:
Данная кинолента имеет в своей основе историю из самой известной в мире книги - из Библии. Историю об известнейшем своей праведностью апостоле - Петре. Фильм напомнит нам множество великих слов из священного писания, расскажет о пользе веры, напомнит о всегда актуальной теме всепрощения, о пользе молитвы, что исходит от сердца.
В этой картине зритель может увидеть примерно то, что происходило в Гефсиманcкoм саду и какая атмосфера была на Тайной вечере. Главным героем будет тюремный солдат-охранник Мартиниан, которому выпала судьба охранять заключённого, что очень сильно отличается от тех, кто, как правило, попадают за решётку. Таким заключённым был ближайший друг и ученик Иисуса Христа, апостол Пётр.
Пётр уже был в преклонном возрасте, когда его приговорили к казни, и ему было что поведать своему тюремщику. Он рассказал, как жил простым рыбаком, о том, каким был его путь к Господу, и как ему удалось стать одним из первых последователей Христа. Пётр рассказывает, что его не пугает ни смерть, ни то, что она будет мученической. Он рассказывает о своей вере и это впечатляет тюремщиков, они пришли на свою службу обычными людьми, которые мало что ведают, однако благодаря апостолу Петру, они узнают об истинном Боге, о спасении, о сыне Божьем, который принял мучения за весь род людской...
Продолжительность: 01:32:10
Качество видео: DVDRip
Видеокодек: Xvid
Битрейт видео: ~2082 кбит/с
Размер кадра: 720х400
Аудио #1 Русский AC-3, 192 Kbps, 2 channels, 48.0 KHz

MediaInfo:

General
Complete name : D:\Загрузки\Apostle Peter and the Last Supper_2012.avi
Format : AVI
Format/Info : Audio Video Interleave
File size : 1.47 GiB
Duration : 1h 32mn
Overall bit rate : 2 283 Kbps
Writing application : VirtualDubModRus 1.5.10.2 (build 2542/release)
Writing library : VirtualDubMod build 2542/release
Video
ID : 0
Format : MPEG-4 Visual
Format profile : Advanced Simple@L5
Format settings, BVOP : Yes
Format settings, QPel : No
Format settings, GMC : No warppoints
Format settings, Matrix : Default (MPEG)
Codec ID : XVID
Codec ID/Hint : XviD
Duration : 1h 32mn
Bit rate : 2 082 Kbps
Width : 720 pixels
Height : 400 pixels
Display aspect ratio : 16:9
Frame rate : 23.976 fps
Color space : YUV
Chroma subsampling : 4:2:0
Bit depth : 8 bits
Scan type : Progressive
Compression mode : Lossy
Bits/(Pixel*Frame) : 0.301
Stream size : 1.34 GiB (91%)
Writing library : XviD 64
Audio
ID : 1
Format : AC-3
Format/Info : Audio Coding 3
Mode extension : CM (complete main)
Format settings, Endianness : Big
Codec ID : 2000
Duration : 1h 32mn
Bit rate mode : Constant
Bit rate : 192 Kbps
Channel count : 2 channels
Channel positions : Front: L R
Sampling rate : 48.0 KHz
Bit depth : 16 bits
Compression mode : Lossy
Stream size : 127 MiB (8%)
Alignment : Split accross interleaves
Interleave, duration : 42 ms (1.00 video frame)
Interleave, preload duration : 500 ms
Скриншоты:

Время раздачи: 24/7

[Цитировать]



Показать сообщения:    

Текущее время: 07-Дек 23:22

Часовой пояс: UTC + 3


Вы не можете начинать темы
Вы не можете отвечать на сообщения
Вы не можете редактировать свои сообщения
Вы не можете удалять свои сообщения
Вы не можете голосовать в опросах
Вы не можете прикреплять файлы к сообщениям
Вы не можете скачивать файлы

!ВНИМАНИЕ!
Сайт не предоставляет электронные версии произведений, а занимается лишь коллекционированием и каталогизацией ссылок, присылаемых и публикуемых на форуме нашими читателями. Если вы являетесь правообладателем какого-либо представленного материала и не желаете, чтобы ссылка на него находилась в нашем каталоге, свяжитесь с нами, и мы незамедлительно удалим ее. Файлы для обмена на трекере предоставлены пользователями сайта, и администрация не несет ответственности за их содержание. Просьба не заливать файлы, защищенные авторскими правами, а также файлы нелегального содержания!